Вы используете незарегистрированную версию компонента "Вкладки"!

Поиск

(Avant-Garde Jazz, Free Improvisation) [CDR] Damon Short & Paul Scea - Brainstorm - 1996, FLAC (tracks+.cue), lossless

(Avant-Garde Jazz, Free Improvisation) [CDR] Damon Short & Paul Scea - Brainstorm - 1996, FLAC (tracks+.cue), lossless
Треклист:
Damon Short & Paul Scea / Brainstorm
Жанр: Avant-Garde Jazz, Free Improvisation
Носитель: CDR
Страна-производитель диска: US
Год издания: 2002
Издатель (лейбл): DepthPerception
Номер по каталогу: DepthPerception 006
Страна: US
Аудиокодек: FLAC (*.flac)
Тип рипа: tracks+.cue
Битрейт аудио: lossless
Продолжительность: 68:13
Источник (релизер): свой фирменный диск
Наличие сканов в содержимом раздачи:
Треклист:
1.-4. Brainstorm 41:13
5. BGP 11:11
6. WiW 6:18
7. Flag Day 9:17
 
Лог создания рипа
Exact Audio Copy V1.0 beta 3 from 29. August 2011
EAC extraction logfile from 9. March 2014, 15:34
Damon Short & Paul Scea / Brainstorm
Used drive : PIONEER DVD-RW DVR-115D Adapter: 0 ID: 0
Read mode : Burst
Read offset correction : 48
Overread into Lead-In and Lead-Out : No
Fill up missing offset samples with silence : Yes
Delete leading and trailing silent blocks : No
Null samples used in CRC calculations : Yes
Used interface : Installed external ASPI interface
Gap handling : Appended to previous track
Used output format : User Defined Encoder
Selected bitrate : 896 kBit/s
Quality : High
Add ID3 tag : No
Command line compressor : C:\Program Files\Exact Audio Copy\FLAC\FLAC.EXE
Additional command line options : -6 -V -T "ARTIST=%artist%" -T "TITLE=%title%" -T "ALBUM=%albumtitle%" -T "DATE=%year%" -T "TRACKNUMBER=%tracknr%" -T "GENRE=%genre%" -T "COMMENT=%comment%" -T "BAND=%albuminterpret%" -T "COMPOSER=%composer%" %haslyrics%--tag-from-file=LYRICS="%lyricsfile%"%haslyrics% -T "DISCNUMBER=%cdnumber%" -T "TOTALDISCS=%totalcds%" -T "TOTALTRACKS=%numtracks%" %hascover%--picture="%coverfile%"%hascover% %source% -o %dest%
TOC of the extracted CD
Track | Start | Length | Start sector | End sector
---------------------------------------------------------
1 | 0:00.00 | 10:16.61 | 0 | 46260
2 | 10:16.61 | 11:11.43 | 46261 | 96628
3 | 21:28.29 | 14:22.58 | 96629 | 161336
4 | 35:51.12 | 5:25.14 | 161337 | 185725
5 | 41:16.26 | 11:16.14 | 185726 | 236439
6 | 52:32.40 | 6:23.25 | 236440 | 265189
7 | 58:55.65 | 9:17.12 | 265190 | 306976
Track 1
Filename D:\zzz\01 - Brainstorm I.wav
Pre-gap length 0:00:02.00
Peak level 90.6 %
Extraction speed 20.5 X
Test CRC 9EFE61FA
Copy CRC 2D9BAC4C
Track not present in AccurateRip database
Copy OK
Track 2
Filename D:\zzz\02 - Brainstorm II.wav
Peak level 100.0 %
Extraction speed 25.0 X
Test CRC 4B533196
Copy CRC DC3230D7
Track not present in AccurateRip database
Copy OK
Track 3
Filename D:\zzz\03 - Brainstorm III.wav
Peak level 93.6 %
Extraction speed 29.5 X
Test CRC 5FE79BFF
Copy CRC 179D1A03
Track not present in AccurateRip database
Copy OK
Track 4
Filename D:\zzz\04 - Brainstorm IV.wav
Peak level 16.0 %
Extraction speed 32.6 X
Test CRC A49724F2
Copy CRC 45AD8FEF
Track not present in AccurateRip database
Copy OK
Track 5
Filename D:\zzz\05 - BGP.wav
Peak level 75.3 %
Extraction speed 35.0 X
Test CRC 1BA59BBD
Copy CRC 637F0734
Track not present in AccurateRip database
Copy OK
Track 6
Filename D:\zzz\06 - WiW.wav
Peak level 56.9 %
Extraction speed 37.3 X
Test CRC 6FF08C52
Copy CRC 40B8A9A0
Track not present in AccurateRip database
Copy OK
Track 7
Filename D:\zzz\07 - Flag Day.wav
Peak level 91.8 %
Extraction speed 39.4 X
Test CRC 79960402
Copy CRC 752FA545
Track not present in AccurateRip database
Copy OK
None of the tracks are present in the AccurateRip database
No errors occurred
End of status report
==== Log checksum 1BFD62631AD925C3B82E7FA1640F3506E968FCC6531393D34088EAA9654EB7DD ====
 
Содержание индексной карты (.CUE)
REM GENRE "Free Improvisation"
REM DATE 1996
REM DISCID 5C0FFD07
REM COMMENT "ExactAudioCopy v1.0b3"
PERFORMER "Damon Short & Paul Scea"
TITLE "Brainstorm"
FILE "01 - Brainstorm I.wav" WAVE
TRACK 01 AUDIO
TITLE "Brainstorm I"
PERFORMER "Damon Short & Paul Scea"
INDEX 01 00:00:00
FILE "02 - Brainstorm II.wav" WAVE
TRACK 02 AUDIO
TITLE "Brainstorm II"
PERFORMER "Damon Short & Paul Scea"
INDEX 01 00:00:00
FILE "03 - Brainstorm III.wav" WAVE
TRACK 03 AUDIO
TITLE "Brainstorm III"
PERFORMER "Damon Short & Paul Scea"
INDEX 01 00:00:00
FILE "04 - Brainstorm IV.wav" WAVE
TRACK 04 AUDIO
TITLE "Brainstorm IV"
PERFORMER "Damon Short & Paul Scea"
INDEX 01 00:00:00
FILE "05 - BGP.wav" WAVE
TRACK 05 AUDIO
TITLE "BGP"
PERFORMER "Damon Short & Paul Scea"
INDEX 01 00:00:00
FILE "06 - WiW.wav" WAVE
TRACK 06 AUDIO
TITLE "WiW"
PERFORMER "Damon Short & Paul Scea"
INDEX 01 00:00:00
FILE "07 - Flag Day.wav" WAVE
TRACK 07 AUDIO
TITLE "Flag Day"
PERFORMER "Damon Short & Paul Scea"
INDEX 01 00:00:00
 
Лог проверки качества
d:\>d:\aucdtect -d/-m0 d:\zzz\*.wav
auCDtect: CD records authenticity detector, version 0.8.2
Copyright (c) 2004 Oleg Berngardt. All rights reserved.
Copyright (c) 2004 Alexander Djourik. All rights reserved.
------------------------------------------------------------
Processing file: [01. Brainstorm I.wav]
------------------------------------------------------------
This track looks like CDDA with probability 100%
------------------------------------------------------------
Processing file: [02. Brainstorm II.wav]
------------------------------------------------------------
This track looks like CDDA with probability 100%
------------------------------------------------------------
Processing file: [03. Brainstorm III.wav]
------------------------------------------------------------
This track looks like CDDA with probability 100%
------------------------------------------------------------
Processing file: [04. Brainstorm IV.wav]
------------------------------------------------------------
This track looks like CDDA with probability 100%
------------------------------------------------------------
Processing file: [05. BGP.wav]
------------------------------------------------------------
This track looks like CDDA with probability 99%
------------------------------------------------------------
Processing file: [06. WiW.wav]
------------------------------------------------------------
This track looks like CDDA with probability 99%
------------------------------------------------------------
Processing file: [07. Flag Day.wav]
------------------------------------------------------------
This track looks like CDDA with probability 100%
------------------------------------------------------------
Final Conclusion:
------------------------------------------------------------
These tracks looks like CDDA with probability 100%
Доп. информация:
 
Album & Artist Info
(Short/Scea) - 1-4
(Short/Scea/Shultz) - 5,6
(Short) - 7
Live 2-track digital recording 3/10/96 at Lunar Cabaret, Chicago, by Michael Greenberg
Edited Jan/Feb 2002 by Damon Short at DepthPerception Studios, Chicago
Produced by Damon Short
Short, Damon (Riley), drummer, percussionist, composer, b. Moline IL, 28 February 1954. Grew up in Rock Island IL, with parents Orville (1916-2001) and Virginia (b. 1919), sister Mary (b. 1942) and brothers Craig (b. 1947) and Brian (b. 1961) His father was an amateur pianist and he developed an interest in music from around age 4, with classical recordings in the home and his older brother's interest in drumming and music of the Swing Era.
Self-taught as a set drummer, Short studied percussion and composition at Black Hawk Community College, Moline IL (1972-74) before spending the fall semester 1974 at San Diego State University, where he studied the music and instruments of composer Harry Partch. He returned to Illinois in 1975 to study composition and percussion at Northern Illinois University, Dekalb IL (BM in composition, 1977; MM in percussion, 1979), studying composition with Paul Steg, percussion with David Johnson, Garry Kvistad (at the time members of the Blackearth Percussion Group) and G. Allan O'Connor, and new music/improvisation with J.B. Floyd and Joseph Pinzarrone. During this period he developed a compositional style which blends elements of European chamber music with more standard jazz rhythmic/harmonic forms. He presented extended original compositions on his Graduate Recitals in 1978 and 1979. His historical interests are reflected in a series of anthological radio programs (in addition to a regular weekly jazz program) for NPR outlet WNIU in Dekalb from 1977-1982. After graduation he moved to Chicago and formed a Monk repertory group, 'Worry Later', which disbanded after only a few months in 1981 but produced a studio document featuring saxophonist Chuck Burdelik (released some 20 years later). In 1983 he moved to New Orleans, where he continued his performing and radio broadcasts, appearing at two new music festivals there and receiving a Louisiana Arts Council grant to produce his first studio recording in 1986. Returning to Chicago in 1987, he formed a series of small groups concentrating on original compositions as well as works by Herbie Nichols and Grachan Moncur III. His quintet appeared at the 1989 Chicago Jazz Festival. His groups appeared as part of the Hennessy National Jazz Search finals in Chicago and the National Jazz Service Organization conference in 1993. He started the limited-edition "DepthPerception" label of archived live and studio material in 2001, and returned to the Chicago Jazz Festival that year. In addition to his own groups, he has appeared in ensembles led by Rob Blakeslee, Vinny Golia, Paul Smoker, Steve Grismore/Paul Scea and Anthony Braxton, and additionally has recorded as sideman with Scott Fields, Fred Hess and Andre Caporaso. He and his wife Kathy (married 1986) have one son, Eric (b. 1991).
 
Состав
Damon Short: drums, vibes, piano
Paul Scea: saxophones, flutes
Ryan Shultz: bass trumpet (5-7)
По всем вопросам пишите личное сообщение пользователю M0p94ok.
00:28
135
Нет комментариев. Ваш будет первым!