Вы используете незарегистрированную версию компонента "Вкладки"!

Поиск

(Avant-Garde Jazz, Percussion Music) [CD] Gregg Bendian - Definite Pitch - 1994, FLAC (tracks+.cue), lossless

(Avant-Garde Jazz, Percussion Music) [CD] Gregg Bendian - Definite Pitch - 1994, FLAC (tracks+.cue), lossless
Треклист:
Gregg Bendian / Definite Pitch
Жанр: Avant-Garde Jazz, Percussion Music
Носитель: CD
Страна-производитель диска: US
Год издания: 1994
Издатель (лейбл): Aggregate Music
Номер по каталогу: AGCD001
Страна: US
Аудиокодек: FLAC (*.flac)
Тип рипа: tracks+.cue
Битрейт аудио: lossless
Продолжительность: 62:05
Источник (релизер): свой фирменный диск
Наличие сканов в содержимом раздачи:
Треклист:
1. Ararat 3:02
2. R.P.F. In Tuva 3:14
3. Resultant 7:42
4. Immediately Pealed 6:33
5. For Steve McCall 4:59
6. Estrellas (Cantar) 4:00
7. Leviathan 4:34
8. Polyanthus 3:28
9. The Ephemerals 10:37
10. Tuva II 1:00
11. Veil Of Tears 4:35
12. Flazure 4:12
13. Kin 4:00
 
Лог создания рипа
Exact Audio Copy V1.0 beta 3 from 29. August 2011
EAC extraction logfile from 8. March 2014, 16:23
Gregg Bendian / Definite Pitch
Used drive : PIONEER DVD-RW DVR-115D Adapter: 0 ID: 0
Read mode : Secure
Utilize accurate stream : Yes
Defeat audio cache : Yes
Make use of C2 pointers : No
Read offset correction : 48
Overread into Lead-In and Lead-Out : No
Fill up missing offset samples with silence : Yes
Delete leading and trailing silent blocks : No
Null samples used in CRC calculations : Yes
Used interface : Installed external ASPI interface
Gap handling : Appended to previous track
Used output format : User Defined Encoder
Selected bitrate : 896 kBit/s
Quality : High
Add ID3 tag : No
Command line compressor : C:\Program Files\Exact Audio Copy\FLAC\FLAC.EXE
Additional command line options : -6 -V -T "ARTIST=%artist%" -T "TITLE=%title%" -T "ALBUM=%albumtitle%" -T "DATE=%year%" -T "TRACKNUMBER=%tracknr%" -T "GENRE=%genre%" -T "COMMENT=%comment%" -T "BAND=%albuminterpret%" -T "COMPOSER=%composer%" %haslyrics%--tag-from-file=LYRICS="%lyricsfile%"%haslyrics% -T "DISCNUMBER=%cdnumber%" -T "TOTALDISCS=%totalcds%" -T "TOTALTRACKS=%numtracks%" %hascover%--picture="%coverfile%"%hascover% %source% -o %dest%
TOC of the extracted CD
Track | Start | Length | Start sector | End sector
---------------------------------------------------------
1 | 0:00.30 | 3:02.29 | 30 | 13708
2 | 3:02.59 | 3:15.11 | 13709 | 28344
3 | 6:17.70 | 7:42.28 | 28345 | 63022
4 | 14:00.23 | 6:34.06 | 63023 | 92578
5 | 20:34.29 | 4:59.72 | 92579 | 115075
6 | 25:34.26 | 4:00.55 | 115076 | 133130
7 | 29:35.06 | 4:34.53 | 133131 | 153733
8 | 34:09.59 | 3:28.31 | 153734 | 169364
9 | 37:38.15 | 10:37.64 | 169365 | 217203
10 | 48:16.04 | 1:00.20 | 217204 | 221723
11 | 49:16.24 | 4:35.71 | 221724 | 242419
12 | 53:52.20 | 4:12.61 | 242420 | 261380
13 | 58:05.06 | 4:00.53 | 261381 | 279433
Track 1
Filename D:\zzz\01 - Ararat.wav
Pre-gap length 0:00:02.30
Peak level 77.7 %
Extraction speed 4.0 X
Track quality 100.0 %
Test CRC CE8130BB
Copy CRC CE8130BB
Accurately ripped (confidence 1) [EDA67417] (AR v2)
Copy OK
Track 2
Filename D:\zzz\02 - R.P.F. In Tuva.wav
Peak level 94.3 %
Extraction speed 4.4 X
Track quality 100.0 %
Test CRC 48273141
Copy CRC 48273141
Accurately ripped (confidence 1) [F92A8F04] (AR v2)
Copy OK
Track 3
Filename D:\zzz\03 - Resultant.wav
Peak level 76.8 %
Extraction speed 5.4 X
Track quality 100.0 %
Test CRC CC0F9DEB
Copy CRC CC0F9DEB
Accurately ripped (confidence 1) [AAE3A79D] (AR v2)
Copy OK
Track 4
Filename D:\zzz\04 - Immediately Pealed.wav
Peak level 70.8 %
Extraction speed 5.5 X
Track quality 99.9 %
Test CRC 0B527FA3
Copy CRC 0B527FA3
Accurately ripped (confidence 1) [BCB9CF42] (AR v2)
Copy OK
Track 5
Filename D:\zzz\05 - For Steve McCall.wav
Peak level 89.8 %
Extraction speed 6.2 X
Track quality 100.0 %
Test CRC 422605A3
Copy CRC 422605A3
Accurately ripped (confidence 1) [678883DD] (AR v2)
Copy OK
Track 6
Filename D:\zzz\06 - Estrellas (Cantar).wav
Peak level 22.9 %
Extraction speed 5.6 X
Track quality 99.9 %
Test CRC 84E4FBDC
Copy CRC 84E4FBDC
Accurately ripped (confidence 1) [7236435A] (AR v2)
Copy OK
Track 7
Filename D:\zzz\07 - Leviathan.wav
Peak level 95.3 %
Extraction speed 6.0 X
Track quality 99.9 %
Test CRC 841E3792
Copy CRC 841E3792
Accurately ripped (confidence 1) [04BDCBD9] (AR v2)
Copy OK
Track 8
Filename D:\zzz\08 - Polyanthus.wav
Peak level 68.6 %
Extraction speed 5.2 X
Track quality 99.9 %
Test CRC D5390BA3
Copy CRC D5390BA3
Accurately ripped (confidence 1) [05C44D84] (AR v2)
Copy OK
Track 9
Filename D:\zzz\09 - The Ephemerals.wav
Peak level 100.0 %
Extraction speed 4.1 X
Track quality 99.7 %
Test CRC 784A9766
Copy CRC 784A9766
Accurately ripped (confidence 1) [83FF5720] (AR v2)
Copy OK
Track 10
Filename D:\zzz\10 - Tuva II.wav
Peak level 61.9 %
Extraction speed 5.4 X
Track quality 100.0 %
Test CRC 6EEBD523
Copy CRC 6EEBD523
Accurately ripped (confidence 1) [301E59B4] (AR v2)
Copy OK
Track 11
Filename D:\zzz\11 - Veil Of Tears.wav
Peak level 100.0 %
Extraction speed 7.8 X
Track quality 100.0 %
Test CRC F72C22A3
Copy CRC F72C22A3
Accurately ripped (confidence 1) [9483F47E] (AR v2)
Copy OK
Track 12
Filename D:\zzz\12 - Flazure.wav
Peak level 52.7 %
Extraction speed 8.0 X
Track quality 100.0 %
Test CRC 8D992AF5
Copy CRC 8D992AF5
Accurately ripped (confidence 1) [91D64830] (AR v2)
Copy OK
Track 13
Filename D:\zzz\13 - Kin.wav
Peak level 10.9 %
Extraction speed 7.2 X
Track quality 99.9 %
Test CRC 2B318FBA
Copy CRC 2B318FBA
Accurately ripped (confidence 1) [100C9EB7] (AR v2)
Copy OK
All tracks accurately ripped
No errors occurred
End of status report
==== Log checksum 5D7DD8BFA92124AF8D8523E4231CA63C427C48D9B03242E9A26BCCEB7E9F05B6 ====
 
Содержание индексной карты (.CUE)
REM GENRE "Percussion Music"
REM DATE 1994
REM DISCID C80E8D0D
REM COMMENT "ExactAudioCopy v1.0b3"
PERFORMER "Gregg Bendian"
TITLE "Definite Pitch"
FILE "01 - Ararat.wav" WAVE
TRACK 01 AUDIO
TITLE "Ararat"
PERFORMER "Gregg Bendian"
PREGAP 00:00:30
INDEX 01 00:00:00
FILE "02 - R.P.F. In Tuva.wav" WAVE
TRACK 02 AUDIO
TITLE "R.P.F. In Tuva"
PERFORMER "Gregg Bendian"
INDEX 01 00:00:00
FILE "03 - Resultant.wav" WAVE
TRACK 03 AUDIO
TITLE "Resultant"
PERFORMER "Gregg Bendian"
INDEX 01 00:00:00
FILE "04 - Immediately Pealed.wav" WAVE
TRACK 04 AUDIO
TITLE "Immediately Pealed"
PERFORMER "Gregg Bendian"
INDEX 01 00:00:00
FILE "05 - For Steve McCall.wav" WAVE
TRACK 05 AUDIO
TITLE "For Steve McCall"
PERFORMER "Gregg Bendian"
INDEX 01 00:00:00
FILE "06 - Estrellas (Cantar).wav" WAVE
TRACK 06 AUDIO
TITLE "Estrellas (Cantar)"
PERFORMER "Gregg Bendian"
INDEX 01 00:00:00
FILE "07 - Leviathan.wav" WAVE
TRACK 07 AUDIO
TITLE "Leviathan"
PERFORMER "Gregg Bendian"
INDEX 01 00:00:00
FILE "08 - Polyanthus.wav" WAVE
TRACK 08 AUDIO
TITLE "Polyanthus"
PERFORMER "Gregg Bendian"
INDEX 01 00:00:00
FILE "09 - The Ephemerals.wav" WAVE
TRACK 09 AUDIO
TITLE "The Ephemerals"
PERFORMER "Gregg Bendian"
INDEX 01 00:00:00
FILE "10 - Tuva II.wav" WAVE
TRACK 10 AUDIO
TITLE "Tuva II"
PERFORMER "Gregg Bendian"
INDEX 01 00:00:00
FILE "11 - Veil Of Tears.wav" WAVE
TRACK 11 AUDIO
TITLE "Veil Of Tears"
PERFORMER "Gregg Bendian"
INDEX 01 00:00:00
FILE "12 - Flazure.wav" WAVE
TRACK 12 AUDIO
TITLE "Flazure"
PERFORMER "Gregg Bendian"
INDEX 01 00:00:00
FILE "13 - Kin.wav" WAVE
TRACK 13 AUDIO
TITLE "Kin"
PERFORMER "Gregg Bendian"
INDEX 01 00:00:00
 
Лог проверки качества
d:\>d:\aucdtect -d/-m0 d:\zzz\*.wav
auCDtect: CD records authenticity detector, version 0.8.2
Copyright (c) 2004 Oleg Berngardt. All rights reserved.
Copyright (c) 2004 Alexander Djourik. All rights reserved.
------------------------------------------------------------
Processing file: [01. Ararat.wav]
------------------------------------------------------------
This track looks like CDDA with probability 94%
------------------------------------------------------------
Processing file: [02. R.P.F. In Tuva.wav]
------------------------------------------------------------
This track looks like CDDA with probability 100%
------------------------------------------------------------
Processing file: [03. Resultant.wav]
------------------------------------------------------------
This track looks like CDDA with probability 87%
------------------------------------------------------------
Processing file: [04. Immediately Pealed.wav]
------------------------------------------------------------
This track looks like CDDA with probability 100%
------------------------------------------------------------
Processing file: [05. For Steve McCall.wav]
------------------------------------------------------------
This track looks like CDDA with probability 99%
------------------------------------------------------------
Processing file: [06. Estrellas (Cantar).wav]
------------------------------------------------------------
This track looks like CDDA with probability 99%
------------------------------------------------------------
Processing file: [07. Leviathan.wav]
------------------------------------------------------------
This track looks like CDDA with probability 100%
------------------------------------------------------------
Processing file: [08. Polyanthus.wav]
------------------------------------------------------------
This track looks like CDDA with probability 62%
------------------------------------------------------------
Processing file: [09. The Ephemerals.wav]
------------------------------------------------------------
This track looks like CDDA with probability 100%
------------------------------------------------------------
Processing file: [10. Tuva II.wav]
------------------------------------------------------------
This track looks like CDDA with probability 100%
------------------------------------------------------------
Processing file: [11. Veil Of Tears.wav]
------------------------------------------------------------
This track looks like CDDA with probability 100%
------------------------------------------------------------
Processing file: [12. Flazure.wav]
------------------------------------------------------------
This track looks like CDDA with probability 100%
------------------------------------------------------------
Processing file: [13. Kin.wav]
------------------------------------------------------------
This track looks like CDDA with probability 99%
------------------------------------------------------------
Final Conclusion:
------------------------------------------------------------
These tracks looks like CDDA with probability 100%
Доп. информация:
 
Album Info & AMG Review
In memory of Krikor & Margaret Bendian (1)
To Richard Feynman (2)
To Derek Bailey (3)
To Don Van Vliet (4)
A Nocturne (6)
To Marsha Waldron (7)
To Cecil Taylor (8)
To Gorky & The Armenian Elders (9)
To Stan Brakhage (11)
To Jamie Muir (12)
Produced by Gregg Bendian
All works by Gregg Bendian
Recorded 10/89, RCA Studios, NYC by Joe Lopes & Jay Newland
Mastered by Jay Newland
There are no overdubs or electronics used in these performances
Photo by Debra Taffet
Liner notes: Gregg Bendian
Solo percussion records are really a shot in the dark. They are either inspired works of art or pretentious pieces of crap -- they fall in few spaces between. To that end, American drummer extraordinaire Gregg Bendian has offered a study on the various spatial relationships of pitch to movement on everything from chimes and marimbas to metalophones, xylophones, glockenspiels, timpanis, altered vibraphones, and snare drums. Each piece is short, an exercise designed to reveal a certain pulse and regulated pitch inside timbral shifts and tonal variations, almost like ghost tones that emit sounds even when the motion used to produce sound is static and repetitive. The fact that Bendian can produce these microtones, overtones, and semi-quavers from the ether on any number of percussion instruments is an achievement in itself. However, that he can commit himself to an artistic process and make it compelling listening is another. And that is the true mark of art -- the thing that has never been done cannot ever be repeated and engages us simultaneously.
 
Состав
Gregg Bendian: chimes (1), chromatic boobams (2,10), prepared vibraphone (3), glockenspiel (3,8), marimba (4), snare drum (5), metalophones (6), timpani (7), vibraphone (8), multiple percussion (9), keyboard percussion (11), bowed vibraphone (13)
12. performed by Ned Stroh, Alex Bocchino & Paul Carroll of NJ Percussion Ensemble (xylophone, vibraphone/glock, marimba)
По всем вопросам пишите личное сообщение пользователю M0p94ok.
00:27
153
Нет комментариев. Ваш будет первым!