Поиск

(Jazz Rock, Funk, Soul, Prog Rock) [CD] Atlas - Atlas - 1977 (Remastered 2008), FLAC (image+.cue), lossless

(Jazz Rock, Funk, Soul, Prog Rock) [CD] Atlas - Atlas - 1977 (Remastered 2008), FLAC (image+.cue), lossless
Треклист:
Atlas - Atlas
Жанр: Funk, Soul, Jazz Rock, Prog Rock
Носитель: CD
Страна-производитель диска (релиза): Germany
Год издания: 1977 (2008)
Издатель (лейбл): Sonorama Records
Номер по каталогу: Sonorama C-31
Страна исполнителя (группы): Austria
Аудиокодек: FLAC (*.flac)
Тип рипа: image+.cue
Битрейт аудио: lossless
Продолжительность: 00:35:05
Источник (релизер): собственный рип
Наличие сканов в содержимом раздачи: да
Треклист:
01. Hey, Man! 3:31
02. Pasteboard 5:38
03. Skybird, Fly 4:33
04. Necessity 3:02
05. Ain't No Sunshine 3:47
06. Play It Cool 3:26
07. Rhode Island 4:01
08. We Are Happy 3:50
09. Let's Not Believe 3:07
 
Лог создания рипа
Exact Audio Copy V1.3 from 2. September 2016
Отчёт EAC об извлечении, выполненном 3. июля 2018, 17:15
Atlas / Atlas
Дисковод: ASUS DRW-24B3ST Adapter: 1 ID: 0
Режим чтения : Достоверность
Использование точного потока : Да
Отключение кэша аудио : Да
Использование указателей C2 : Нет
Коррекция смещения при чтении : 6
Способность читать области Lead-in и Lead-out : Нет
Заполнение пропущенных сэмплов тишиной : Да
Удаление блоков с тишиной в начале и конце : Нет
При вычислениях CRC использовались нулевые сэмплы : Да
Интерфейс : Встроенный Win32-интерфейс для Win NT/2000
Выходной формат : Пользовательский кодировщик
Выбранный битрейт : 1024 kBit/s
Качество : Высокий
Добавление ID3-тега : Нет
Утилита сжатия : C:\Program Files (x86)\Exact Audio Copy\Flac\flac.exe
Дополнительные параметры : -V -8 -T "Date=%year%" -T "Genre=%genre%" %source%
TOC извлечённого CD
Трек | Старт | Длительность | Начальный сектор | Конечный сектор
---------------------------------------------------------------------
1 | 0:00.00 | 3:31.64 | 0 | 15888
2 | 3:31.64 | 5:38.65 | 15889 | 41303
3 | 9:10.54 | 4:33.19 | 41304 | 61797
4 | 13:43.73 | 3:02.72 | 61798 | 75519
5 | 16:46.70 | 3:47.41 | 75520 | 92585
6 | 20:34.36 | 3:26.08 | 92586 | 108043
7 | 24:00.44 | 4:01.25 | 108044 | 126143
8 | 28:01.69 | 3:50.25 | 126144 | 143418
9 | 31:52.19 | 3:12.35 | 143419 | 157853
Характеристики диапазона извлечения и сообщения об ошибках
Выбранный диапазон
Имя файла E:\Torrents-seed\Atlas - 1977\Atlas - Atlas.wav
Пиковый уровень 99.8 %
Скорость извлечения 7.9 X
Качество диапазона 100.0 %
CRC теста 4DC768BA
CRC копии 4DC768BA
Копирование... OK
Ошибок не произошло
AccurateRip: сводка
Трек 1 : извлечено точно (доверие 2) [54E44B84] (AR v2)
Трек 2 : извлечено точно (доверие 2) [F079201E] (AR v2)
Трек 3 : извлечено точно (доверие 2) [4E56C365] (AR v2)
Трек 4 : извлечено точно (доверие 2) [4B7AEB6D] (AR v2)
Трек 5 : извлечено точно (доверие 2) [4FA48FF6] (AR v2)
Трек 6 : извлечено точно (доверие 2) [97D0FF68] (AR v2)
Трек 7 : извлечено точно (доверие 2) [A49A2193] (AR v2)
Трек 8 : извлечено точно (доверие 2) [C4BC49D6] (AR v2)
Трек 9 : извлечено точно (доверие 2) [582DC722] (AR v2)
Все треки извлечены точно
Конец отчёта
==== Контрольная сумма отчёта E6FAAC33A1331FF76A8C26B1C2B322A45A69D637C9CFA07948D93A649F37FFF9 ====
 
Замер динамического диапазона (DRM)
foobar2000 1.3.17 / Dynamic Range Meter 1.1.1
log date: 2018-07-03 18:15:56
--------------------------------------------------------------------------------
Analyzed: Atlas / Atlas
--------------------------------------------------------------------------------
DR Peak RMS Duration Track
--------------------------------------------------------------------------------
DR7 -0.02 dB -8.16 dB 3:32 01-Hey, Man!
DR7 -0.28 dB -9.16 dB 5:39 02-Pasteboard
DR7 -0.31 dB -9.32 dB 4:33 03-Skybird, Fly
DR8 -0.21 dB -9.39 dB 3:03 04-Necessity
DR5 -0.15 dB -6.57 dB 3:48 05-Ain't No Sunshine
DR6 -0.15 dB -7.94 dB 3:26 06-Play It Cool
DR8 -0.30 dB -9.27 dB 4:01 07-Rhode Island
DR7 -0.18 dB -8.95 dB 3:50 08-We Are Happy
DR6 -0.30 dB -7.66 dB 3:12 09-Let's Not Belive
--------------------------------------------------------------------------------
Number of tracks: 9
Official DR value: DR7
Samplerate: 44100 Hz
Channels: 2
Bits per sample: 16
Bitrate: 858 kbps
Codec: FLAC
================================================================================
 
Об исполнителе (группе)
 
Состав
Bass – Helmut Pichler
Drums, Percussion, Strings, Piano – Thomas Böröcz
Electric Piano [Rhodes], Clavinet – Hannes Seidl
Guitar – Reinhard Kühne
Saxophone [Tenor] – Franz Berka
Trombone – Gereon Wolter
Trumpet – Helmut Plattner, Joe Rauter
Vocals – Reinhard Ploil
Producer – Atlas
Приватный:
Нет (DHT включён)
Размер:
240.72 Мб (252,410,869 байт) » файлов: 9
Участники:
0 раздают, 0 качают (0 участников всего)
Внешние участники:
3 раздают, 1 качают (4 участников всего) [ Обновить ]
For power users only: no seeders - write to support@pro-jazz.com. Для power user: нет сидеров - пишите на support@pro-jazz.com.
16:03
162
Нет комментариев. Ваш будет первым!