Поиск

(Funk, Soul) [CD] David Porter - Into A Real Thing - 1971 (Remastered 2015), FLAC (tracks+.cue), lossless

(Funk, Soul) [CD] David Porter - Into A Real Thing - 1971 (Remastered 2015), FLAC (tracks+.cue), lossless
Треклист:
David Porter / Into A Real Thing
Жанр: Funk, Soul
Носитель: CD
Страна-производитель диска (релиза): UK
Год издания: 1971
Год издания CD: 2015
Издатель (лейбл): Stax
Номер по каталогу: CDSXD 146
Страна исполнителя (группы): USA
Аудиокодек: FLAC (*.flac)
Тип рипа: tracks+.cue
Битрейт аудио: lossless
Продолжительность: 46:27
Источник (релизер): DP
Наличие сканов в содержимом раздачи: нет
Треклист:
1. Hang On Sloopy 11:07
2. Ooo-Wee Girl 4:25
3. Too Real To Live A Lie 5:59
4. Grocery Man 3:10
5. I Don't Wanna Cry 4:16
6. Thirty Days 3:27
Bonus Tracks
7. Come Get From Me (Parts 1 & 2) 6:27
8. Gotta Get Over The Hump 3:20
9. Somebody's Trying To Ride Piggy Back 4:00
 
Лог создания рипа
X Lossless Decoder version 20170729 (150.3)
XLD extraction logfile from 2018-06-11 15:12:43 -0400
David Porter / Into a Real Thing [Stax CDSXD 146]
Used drive : PIONEER BD-RW BDR-XD05 (revision 3.01)
Media type : Pressed CD
Ripper mode : XLD Secure Ripper
Disable audio cache : OK for the drive with a cache less than 1375KiB
Make use of C2 pointers : NO
Read offset correction : 667
Max retry count : 20
Gap status : Analyzed, Appended (except HTOA)
TOC of the extracted CD
Track | Start | Length | Start sector | End sector
---------------------------------------------------------
1 | 00:00:00 | 11:08:24 | 0 | 50123
2 | 11:08:24 | 04:27:02 | 50124 | 70150
3 | 15:35:26 | 06:00:35 | 70151 | 97185
4 | 21:35:61 | 03:11:66 | 97186 | 111576
5 | 24:47:52 | 04:18:01 | 111577 | 130927
6 | 29:05:53 | 03:29:27 | 130928 | 146629
7 | 32:35:05 | 06:29:53 | 146630 | 175857
8 | 39:04:58 | 03:22:04 | 175858 | 191011
9 | 42:26:62 | 04:00:22 | 191012 | 209033
AccurateRip Summary (DiscID: 00120b24-007e6db5-960ae309)
Track 01 : OK (v2, confidence 2/2)
Track 02 : OK (v2, confidence 2/2)
Track 03 : OK (v2, confidence 2/2)
Track 04 : OK (v2, confidence 2/2)
Track 05 : OK (v2, confidence 2/2)
Track 06 : OK (v2, confidence 2/2)
Track 07 : OK (v2, confidence 2/2)
Track 08 : OK (v2, confidence 2/2)
Track 09 : OK (v2, confidence 2/2)
->All tracks accurately ripped.
All Tracks
Album gain : -3.94 dB
Peak : 0.955109
Statistics
Read error : 0
Jitter error (maybe fixed) : 0
Retry sector count : 0
Damaged sector count : 0
Track 01
Filename : /XLD Rips/01 David Porter - Hang on Sloopy.flac
Pre-gap length : 00:02:00
Track gain : -3.09 dB
Peak : 0.955078
CRC32 hash (test run) : EB8C34D6
CRC32 hash : EB8C34D6
CRC32 hash (skip zero) : 9A8D9E3A
AccurateRip v1 signature : 9B104112
AccurateRip v2 signature : F442C2DD
->Accurately ripped (v2, confidence 2/2)
Statistics
Read error : 0
Jitter error (maybe fixed) : 0
Retry sector count : 0
Damaged sector count : 0
Track 02
Filename : /XLD Rips/02 David Porter - Ooo-Wee Girl.flac
Pre-gap length : 00:01:14
Track gain : -4.06 dB
Peak : 0.955048
CRC32 hash (test run) : E13FBE60
CRC32 hash : E13FBE60
CRC32 hash (skip zero) : 02931A59
AccurateRip v1 signature : 45504176
AccurateRip v2 signature : D7102DE6
->Accurately ripped (v2, confidence 2/2)
Statistics
Read error : 0
Jitter error (maybe fixed) : 0
Retry sector count : 0
Damaged sector count : 0
Track 03
Filename : /XLD Rips/03 David Porter - Too Real to Live a Lie.flac
Pre-gap length : 00:01:43
Track gain : -4.37 dB
Peak : 0.955048
CRC32 hash (test run) : E8CCE323
CRC32 hash : E8CCE323
CRC32 hash (skip zero) : C5E19176
AccurateRip v1 signature : 10956C02
AccurateRip v2 signature : 4B8D5B2E
->Accurately ripped (v2, confidence 2/2)
Statistics
Read error : 0
Jitter error (maybe fixed) : 0
Retry sector count : 0
Damaged sector count : 0
Track 04
Filename : /XLD Rips/04 David Porter - Grocery Man.flac
Pre-gap length : 00:01:20
Track gain : -3.87 dB
Peak : 0.954803
CRC32 hash (test run) : A0A32BFF
CRC32 hash : A0A32BFF
CRC32 hash (skip zero) : 827D5FA2
AccurateRip v1 signature : DA5727CA
AccurateRip v2 signature : FB062B41
->Accurately ripped (v2, confidence 2/2)
Statistics
Read error : 0
Jitter error (maybe fixed) : 0
Retry sector count : 0
Damaged sector count : 0
Track 05
Filename : /XLD Rips/05 David Porter - I Don't Wanna Cry.flac
Pre-gap length : 00:01:20
Track gain : -4.56 dB
Peak : 0.955048
CRC32 hash (test run) : 5599CEA8
CRC32 hash : 5599CEA8
CRC32 hash (skip zero) : 9B7655DD
AccurateRip v1 signature : 6FA93CB2
AccurateRip v2 signature : 44B9F5E0
->Accurately ripped (v2, confidence 2/2)
Statistics
Read error : 0
Jitter error (maybe fixed) : 0
Retry sector count : 0
Damaged sector count : 0
Track 06
Filename : /XLD Rips/06 David Porter - Thirty Days.flac
Pre-gap length : 00:01:30
Track gain : -4.00 dB
Peak : 0.955048
CRC32 hash (test run) : C04310D6
CRC32 hash : C04310D6
CRC32 hash (skip zero) : 22AA48F7
AccurateRip v1 signature : 662E0DF4
AccurateRip v2 signature : 4622C160
->Accurately ripped (v2, confidence 2/2)
Statistics
Read error : 0
Jitter error (maybe fixed) : 0
Retry sector count : 0
Damaged sector count : 0
Track 07
Filename : /XLD Rips/07 David Porter - Come Get From me (Parts 1 & 2).flac
Pre-gap length : 00:01:61
Track gain : -3.84 dB
Peak : 0.951385
CRC32 hash (test run) : 74D83455
CRC32 hash : 74D83455
CRC32 hash (skip zero) : 23D19AC7
AccurateRip v1 signature : EA1943C9
AccurateRip v2 signature : 3474096C
->Accurately ripped (v2, confidence 2/2)
Statistics
Read error : 0
Jitter error (maybe fixed) : 0
Retry sector count : 0
Damaged sector count : 0
Track 08
Filename : /XLD Rips/08 David Porter - Gotta Get Over The Hump.flac
Pre-gap length : 00:01:62
Track gain : -4.93 dB
Peak : 0.955109
CRC32 hash (test run) : 81E502D9
CRC32 hash : 81E502D9
CRC32 hash (skip zero) : 920BAB9F
AccurateRip v1 signature : 02DB4BEB
AccurateRip v2 signature : 9BE506F9
->Accurately ripped (v2, confidence 2/2)
Statistics
Read error : 0
Jitter error (maybe fixed) : 0
Retry sector count : 0
Damaged sector count : 0
Track 09
Filename : /XLD Rips/09 David Porter - Somebody's Trying to Ride Piggy Back.flac
Pre-gap length : 00:01:74
Track gain : -3.44 dB
Peak : 0.815491
CRC32 hash (test run) : 317F2E52
CRC32 hash : 317F2E52
CRC32 hash (skip zero) : 75BDE028
AccurateRip v1 signature : 53EDDF80
AccurateRip v2 signature : DD47899B
->Accurately ripped (v2, confidence 2/2)
Statistics
Read error : 0
Jitter error (maybe fixed) : 0
Retry sector count : 0
Damaged sector count : 0
No errors occurred
End of status report
-----BEGIN XLD SIGNATURE-----
JDzby5WD9L6sdrUlIDB2qoRcpLkxGwWQcBjqqLmOMMGUuXF4L397QLkv1XcZq8.utd36ut_RmB8nZx1oPUPCbshpQd9B_nDx1b1o7Ge
-----END XLD SIGNATURE-----
 
Содержание индексной карты (.CUE)
TITLE "Into a Real Thing [Stax CDSXD 146]"
PERFORMER "David Porter"
REM GENRE "Soul"
REM DATE "1971"
REM DISCID 960AE309
REM REPLAYGAIN_ALBUM_GAIN -3.94 dB
REM REPLAYGAIN_ALBUM_PEAK 0.955109
FILE "1.Hang on Sloopy.flac" WAVE
TRACK 01 AUDIO
TITLE "Hang on Sloopy"
ISRC USC4R1201335
REM REPLAYGAIN_TRACK_GAIN -3.09 dB
REM REPLAYGAIN_TRACK_PEAK 0.955078
INDEX 01 00:00:00
TRACK 02 AUDIO
TITLE "Ooo-Wee Girl"
ISRC USC4R1201336
REM REPLAYGAIN_TRACK_GAIN -4.06 dB
REM REPLAYGAIN_TRACK_PEAK 0.955048
INDEX 00 11:07:10
FILE "2.Ooo-Wee Girl.flac" WAVE
INDEX 01 00:00:00
TRACK 03 AUDIO
TITLE "Too Real to Live a Lie"
ISRC USC4R1201337
REM REPLAYGAIN_TRACK_GAIN -4.37 dB
REM REPLAYGAIN_TRACK_PEAK 0.955048
INDEX 00 04:25:34
FILE "3.Too Real to Live a Lie.flac" WAVE
INDEX 01 00:00:00
TRACK 04 AUDIO
TITLE "Grocery Man"
ISRC USC4R1201338
REM REPLAYGAIN_TRACK_GAIN -3.87 dB
REM REPLAYGAIN_TRACK_PEAK 0.954803
INDEX 00 05:59:15
FILE "4.David Porter - Grocery Man.flac" WAVE
INDEX 01 00:00:00
TRACK 05 AUDIO
TITLE "I Don't Wanna Cry"
ISRC USC4R1201339
REM REPLAYGAIN_TRACK_GAIN -4.56 dB
REM REPLAYGAIN_TRACK_PEAK 0.955048
INDEX 00 03:10:46
FILE "5.I Don't Wanna Cry.flac" WAVE
INDEX 01 00:00:00
TRACK 06 AUDIO
TITLE "Thirty Days"
ISRC USC4R1201340
REM REPLAYGAIN_TRACK_GAIN -4.00 dB
REM REPLAYGAIN_TRACK_PEAK 0.955048
INDEX 00 04:16:46
FILE "6.Thirty Days.flac" WAVE
INDEX 01 00:00:00
TRACK 07 AUDIO
TITLE "Come Get From me (Parts 1 & 2)"
ISRC USC4R1503729
REM REPLAYGAIN_TRACK_GAIN -3.84 dB
REM REPLAYGAIN_TRACK_PEAK 0.951385
INDEX 00 03:27:41
FILE "7.Come Get From me (Parts 1 & 2).flac" WAVE
INDEX 01 00:00:00
TRACK 08 AUDIO
TITLE "Gotta Get Over The Hump"
ISRC USC4R1503730
REM REPLAYGAIN_TRACK_GAIN -4.93 dB
REM REPLAYGAIN_TRACK_PEAK 0.955109
INDEX 00 06:27:66
FILE "8.Gotta Get Over The Hump.flac" WAVE
INDEX 01 00:00:00
TRACK 09 AUDIO
TITLE "Somebody's Trying to Ride Piggy Back"
ISRC USC4R1503731
REM REPLAYGAIN_TRACK_GAIN -3.44 dB
REM REPLAYGAIN_TRACK_PEAK 0.815491
INDEX 00 03:20:05
FILE "9.Somebody's Trying to Ride Piggy Back.flac" WAVE
INDEX 01 00:00:00
 
DR Log
foobar2000 1.1.10 / Dynamic Range Meter 1.1.1
log date: 2018-07-02 15:38:23
--------------------------------------------------------------------------------
Analyzed: David Porter / Into a Real Thing [Stax CDSXD 146]
--------------------------------------------------------------------------------
DR Peak RMS Duration Track
--------------------------------------------------------------------------------
DR13 -0.40 dB -17.29 dB 11:08 ?-Hang on Sloopy
DR12 -0.40 dB -14.80 dB 4:27 ?-Ooo-Wee Girl
DR12 -0.40 dB -14.92 dB 6:00 ?-Too Real to Live a Lie
DR13 -0.40 dB -14.93 dB 3:12 ?-Grocery Man
DR12 -0.40 dB -14.80 dB 4:18 ?-I Don't Wanna Cry
DR13 -0.40 dB -14.96 dB 3:29 ?-Thirty Days
DR11 -0.43 dB -14.59 dB 6:30 ?-Come Get From me (Parts 1 & 2)
DR11 -0.40 dB -14.60 dB 3:22 ?-Gotta Get Over The Hump
DR11 -1.77 dB -14.97 dB 4:00 ?-Somebody's Trying to Ride Piggy Back
--------------------------------------------------------------------------------
Number of tracks: 9
Official DR value: DR12
Samplerate: 44100 Hz
Channels: 2
Bits per sample: 16
Bitrate: 844 kbps
Codec: FLAC
================================================================================
 
Об исполнителе (группе)
In the early 70s Stax singer-songwriter-producer David Porter followed in the footsteps of Isaac Hayes, his former collaborator, with four albums for the Enterprise subsidiary: full of similarly elongated arrangements, elaborate instrumentation and supremely soulful vocals. 'Into A Real Thing' is the follow-up to Porter's early 1970 album 'Gritty, Groovy And Gettin' It', already available on Stax. Porter, with a new writing partner, Ronnie Williams, worked on this album in Muscle Shoals to create a similarly soulful set, but with a higher number of original songs than its predecessor. One standout track which wasn't their own is the radical revision of the McCoys' mid-60s smash 'Hang On Sloopy'.
https://en.wikipedia.org/wiki/David_Porter_(musician)

Раздаю до первых 5-ти скачавших, на раздачи не возвращаюсь...
Приватный:
Нет (DHT включён)
Размер:
280.68 Мб (294,310,368 байт) » файлов: 13
Участники:
0 раздают, 0 качают (0 участников всего)
Внешние участники:
3 раздают, 1 качают (4 участников всего) [ Обновить ]
Есть вопросы - пишите личное сообщение пользователю M0p94ok.
16:03
46
Нет комментариев. Ваш будет первым!