Поиск

(Crossover Jazz, Fusion, Funk) [CD] Nicolas Gardel & The Headbangers - The Iron Age - 2018, FLAC (tracks+.cue), lossless

(Crossover Jazz, Fusion, Funk) [CD] Nicolas Gardel & The Headbangers - The Iron Age - 2018, FLAC (tracks+.cue), lossless
Треклист:
Nicolas Gardel & The Headbangers / The Iron Age
Жанр: Crossover Jazz, Fusion, Funk
Носитель: CD
Год издания: 2018
Издатель (лейбл): Nicolas Gardel
Номер по каталогу: THB002
Аудиокодек: FLAC (*.flac)
Тип рипа: tracks+.cue
Битрейт аудио: lossless
Продолжительность: 00:55:49
Источник (релизер): Apollo
Наличие сканов в содержимом раздачи: да
Треклист:
01. Loveless In Babylone[08:44]
02. Mister Clean [04:52]
03. Seven Skies [06:08]
04. The Rise Of Gabriel[06:38]
05. Pump [06:31]
06. Alpha and Omega [06:19]
07. Homeland's Death [07:15]
08. What is the Thing Called Jazz[02:54]
09. Purple Wrainst [06:22]
 
Лог создания рипа
Exact Audio Copy V1.3 from 2. September 2016
EAC extraction logfile from 25. June 2018, 18:20
Nicolas Gardel and the Headbangers / The iron age
Used drive : ATAPI iHBS112 2 Adapter: 1 ID: 2
Read mode : Secure
Utilize accurate stream : Yes
Defeat audio cache : Yes
Make use of C2 pointers : No
Read offset correction : 6
Overread into Lead-In and Lead-Out : No
Fill up missing offset samples with silence : Yes
Delete leading and trailing silent blocks : No
Null samples used in CRC calculations : Yes
Used interface : Native Win32 interface for Win NT & 2000
Gap handling : Appended to previous track
Used output format : User Defined Encoder
Selected bitrate : 768 kBit/s
Quality : High
Add ID3 tag : No
Command line compressor : C:\Program Files (x86)\Exact Audio Copy\FLAC\FLAC.EXE
Additional command line options : -8 -V -T "ARTIST=%artist%" -T "TITLE=%title%" -T "ALBUM=%albumtitle%" -T "DATE=%year%" -T "TRACKNUMBER=%tracknr%" -T "GENRE=%genre%" -T "PERFORMER=%albuminterpret%" -T "COMPOSER=%composer%" -T "ALBUMARTIST=%albumartist%" -T "DISCNUMBER=%cdnumber%" -T "TOTALDISCS=%totalcds%" -T "TOTALTRACKS=%numtracks%" -T "COMMENT=EAC Secure Mode, Test & Copy, AccurateRip, FLAC -8" %source% -o %dest%
TOC of the extracted CD
Track | Start | Length | Start sector | End sector
---------------------------------------------------------
1 | 0:00.00 | 8:44.15 | 0 | 39314
2 | 8:44.15 | 4:52.70 | 39315 | 61284
3 | 13:37.10 | 6:08.04 | 61285 | 88888
4 | 19:45.14 | 6:38.55 | 88889 | 118793
5 | 26:23.69 | 6:31.44 | 118794 | 148162
6 | 32:55.38 | 6:19.50 | 148163 | 176637
7 | 39:15.13 | 7:15.63 | 176638 | 209325
8 | 46:31.01 | 2:54.73 | 209326 | 222448
9 | 49:25.74 | 6:22.55 | 222449 | 251153
Track 1
Filename G:\DL\Nicolas Gardel and the Headbangers - The Iron Age (2018) [FLAC]\01 - Loveless In Babylone.wav
Pre-gap length 0:00:02.00
Peak level 97.1 %
Extraction speed 5.3 X
Track quality 99.9 %
Test CRC 4656F215
Copy CRC 4656F215
Track not present in AccurateRip database
Copy OK
Track 2
Filename G:\DL\Nicolas Gardel and the Headbangers - The Iron Age (2018) [FLAC]\02 - Mister Clean.wav
Pre-gap length 0:00:02.00
Peak level 97.1 %
Extraction speed 6.3 X
Track quality 100.0 %
Test CRC CE9C8AC1
Copy CRC CE9C8AC1
Track not present in AccurateRip database
Copy OK
Track 3
Filename G:\DL\Nicolas Gardel and the Headbangers - The Iron Age (2018) [FLAC]\03 - Seven Skies.wav
Pre-gap length 0:00:02.00
Peak level 97.1 %
Extraction speed 7.1 X
Track quality 100.0 %
Test CRC 7DAE8637
Copy CRC 7DAE8637
Track not present in AccurateRip database
Copy OK
Track 4
Filename G:\DL\Nicolas Gardel and the Headbangers - The Iron Age (2018) [FLAC]\04 - The Rise Of Gabriel.wav
Pre-gap length 0:00:01.00
Peak level 97.1 %
Extraction speed 6.9 X
Track quality 99.9 %
Test CRC B2E6946E
Copy CRC B2E6946E
Track not present in AccurateRip database
Copy OK
Track 5
Filename G:\DL\Nicolas Gardel and the Headbangers - The Iron Age (2018) [FLAC]\05 - Pump.wav
Pre-gap length 0:00:02.00
Peak level 97.1 %
Extraction speed 8.4 X
Track quality 100.0 %
Test CRC B739F2F9
Copy CRC B739F2F9
Track not present in AccurateRip database
Copy OK
Track 6
Filename G:\DL\Nicolas Gardel and the Headbangers - The Iron Age (2018) [FLAC]\06 - Alpha and Omega.wav
Pre-gap length 0:00:02.00
Peak level 97.1 %
Extraction speed 8.8 X
Track quality 100.0 %
Test CRC 1F7E2816
Copy CRC 1F7E2816
Track not present in AccurateRip database
Copy OK
Track 7
Filename G:\DL\Nicolas Gardel and the Headbangers - The Iron Age (2018) [FLAC]\07 - Homeland's Death.wav
Pre-gap length 0:00:02.00
Peak level 97.1 %
Extraction speed 9.5 X
Track quality 100.0 %
Test CRC F405FB59
Copy CRC F405FB59
Track not present in AccurateRip database
Copy OK
Track 8
Filename G:\DL\Nicolas Gardel and the Headbangers - The Iron Age (2018) [FLAC]\08 - What is the Thing Called Jazz.wav
Pre-gap length 0:00:02.00
Peak level 97.1 %
Extraction speed 7.0 X
Track quality 99.9 %
Test CRC 90D38B45
Copy CRC 90D38B45
Track not present in AccurateRip database
Copy OK
Track 9
Filename G:\DL\Nicolas Gardel and the Headbangers - The Iron Age (2018) [FLAC]\09 - Purple Wrainst.wav
Pre-gap length 0:00:01.00
Peak level 97.1 %
Extraction speed 9.9 X
Track quality 100.0 %
Test CRC A6CE3099
Copy CRC A6CE3099
Track not present in AccurateRip database
Copy OK
None of the tracks are present in the AccurateRip database
No errors occurred
End of status report
---- CUETools DB Plugin V2.1.6
[CTDB TOCID: K367r0LB5SFPGYE_tZqMHNDk8hk-] found
Submit result: K367r0LB5SFPGYE_tZqMHNDk8hk- has been confirmed
Track | CTDB Status
1 | (5/5) Accurately ripped
2 | (5/5) Accurately ripped
3 | (5/5) Accurately ripped
4 | (5/5) Accurately ripped
5 | (5/5) Accurately ripped
6 | (5/5) Accurately ripped
7 | (5/5) Accurately ripped
8 | (5/5) Accurately ripped
9 | (5/5) Accurately ripped
==== Log checksum D5936CA2CEE025537294CB9644272D0257C65775F405CD4971F49B922F8275B1 ====
 
Содержание индексной карты (.CUE)
REM GENRE Jazz
REM DATE 2018
REM DISCID 9B0D1409
REM COMMENT "ExactAudioCopy v1.3"
PERFORMER "Nicolas Gardel and the Headbangers"
TITLE "The iron age"
REM COMPOSER "Nicolas Gardel and the Headbangers"
FILE "01 - Loveless In Babylone.wav" WAVE
TRACK 01 AUDIO
TITLE "Loveless In Babylone"
PERFORMER "Nicolas Gardel and the Headbangers"
REM COMPOSER " "
INDEX 01 00:00:00
TRACK 02 AUDIO
TITLE "Mister Clean"
PERFORMER "Nicolas Gardel and the Headbangers"
REM COMPOSER " "
INDEX 00 08:42:15
FILE "02 - Mister Clean.wav" WAVE
INDEX 01 00:00:00
TRACK 03 AUDIO
TITLE "Seven Skies"
PERFORMER "Nicolas Gardel and the Headbangers"
REM COMPOSER " "
INDEX 00 04:50:70
FILE "03 - Seven Skies.wav" WAVE
INDEX 01 00:00:00
TRACK 04 AUDIO
TITLE "The Rise Of Gabriel"
PERFORMER "Nicolas Gardel and the Headbangers"
REM COMPOSER " "
INDEX 00 06:07:04
FILE "04 - The Rise Of Gabriel.wav" WAVE
INDEX 01 00:00:00
TRACK 05 AUDIO
TITLE "Pump"
PERFORMER "Nicolas Gardel and the Headbangers"
REM COMPOSER " "
INDEX 00 06:36:55
FILE "05 - Pump.wav" WAVE
INDEX 01 00:00:00
TRACK 06 AUDIO
TITLE "Alpha and Omega"
PERFORMER "Nicolas Gardel and the Headbangers"
REM COMPOSER " "
INDEX 00 06:29:44
FILE "06 - Alpha and Omega.wav" WAVE
INDEX 01 00:00:00
TRACK 07 AUDIO
TITLE "Homeland's Death"
PERFORMER "Nicolas Gardel and the Headbangers"
REM COMPOSER " "
INDEX 00 06:17:50
FILE "07 - Homeland's Death.wav" WAVE
INDEX 01 00:00:00
TRACK 08 AUDIO
TITLE "What is the Thing Called Jazz"
PERFORMER "Nicolas Gardel and the Headbangers"
REM COMPOSER " "
INDEX 00 07:13:63
FILE "08 - What is the Thing Called Jazz.wav" WAVE
INDEX 01 00:00:00
TRACK 09 AUDIO
TITLE "Purple Wrainst"
PERFORMER "Nicolas Gardel and the Headbangers"
REM COMPOSER " "
INDEX 00 02:53:73
FILE "09 - Purple Wrainst.wav" WAVE
INDEX 01 00:00:00
 
Об альбоме (сборнике)
The Headbangers” as their name implies, shake up ideas, their groove inciting insuppressible head thrashing.
Trumpet player Nicolas Gardel’s new sextet thwarts division by artfully combining vintage and modern; opening dialogue between Funk, Pop, Jazz and Electronic. By entering these realms of music, the group successfully opens perspectives with a singular, powerful and elegant sound, graced with ravishing creative energy.
After a dazzling career performing alongside some of the world’s greatest performers, the charismatic Gardel is frontman of his own creative project. He’s surrounded himself with the most talented musicians to bring the music of The Headbangers to life. The public is catapulted into a universe of powerful melodies and gripping rhythms.
With their first studio album “The Dark Side of a Love Affair”, The Headbangers reveal their signature sound: music with neither etiquette nor concession, mainstream yet demanding, sensual and fierce !
Nicolas Gardel. Trumpet player for over thirty years, Nicolas Gardel is a Jazz prodigy and above all a music lover.
His references: Wynton Marsalis, Roy Hargrove, Muse, Radiohead, Queen, Does it Offend You, Yeah ?, Alicia Keys… His clear and elaborate phrasing hasenabled him to collaborate with prestigious and eclectic artists: Henri Texier, David Sanborn, Laurent Mignard, Nicholas Payton, Pierrick Pédron, Electro Deluxe, Rémi Panossian, Zebda, Manolin, Tirso Duarte, Paris chamber orchestra…
 
Состав
Nicolas Gardel – Trompette – Claviers – Compositions
Ferdinand Doumerc – Saxophones – Flûte
Thibaud Dufoy – Claviers – Piano
Dorian Dutech – Guitares
Philippe Burneau – Basse
Jérôme Martineau-Ricotti – Batterie
Приватный:
Да (DHT отключён)
Размер:
387.21 Мб (406,015,871 байт) » файлов: 23
Участники:
0 раздают, 0 качают (0 участников всего)
Внешние участники:
--- [ Обновить ]
No seeders - write a personal message to user M0p94ok. Нет сидеров - пишите личное сообщение пользователю M0p94ok.
16:02
61
Нет комментариев. Ваш будет первым!