Поиск

(Jazz-Funk, Soul, Rhythm & Blues) [CD] Analog Son - Black Diamond - 2017, FLAC (tracks+.cue), lossless

(Jazz-Funk, Soul, Rhythm & Blues) [CD] Analog Son - Black Diamond - 2017, FLAC (tracks+.cue), lossless
Треклист:
Analog Son / Black Diamond
Жанр: Jazz-Funk, Soul, Rhythm & Blues
Носитель: CD
Год издания: 2017
Аудиокодек: FLAC (*.flac)
Тип рипа: tracks+.cue
Битрейт аудио: lossless
Продолжительность: 35:16
Источник (релизер): artmuss
Наличие сканов в содержимом раздачи: нет
Треклист:
1. Blue Nile (03:44)
2. Eyes for You (feat. Corey Frye) (03:55)
3. Big Easy (feat. Devon Parker) (04:50)
4. A Trip Around the Sun Pt. II (03:27)
5. Under the Oaks (04:33)
6. Ain't Lyin' (feat. Jonathan "Skippy" Huvard) (03:45)
7. Black Diamond (feat. Jason Hann) (03:35)
8. Sunshine (feat. Ivan Neville) (03:23)
9. Sky High (04:00)
 
Лог создания рипа
Exact Audio Copy V1.1 from 23. June 2015
EAC extraction logfile from 19. June 2018, 20:22
Analog Son / Black Diamond
Used drive : ASUS BC-12B1ST Adapter: 1 ID: 0
Read mode : Secure
Utilize accurate stream : Yes
Defeat audio cache : Yes
Make use of C2 pointers : No
Read offset correction : 702
Overread into Lead-In and Lead-Out : No
Fill up missing offset samples with silence : Yes
Delete leading and trailing silent blocks : No
Null samples used in CRC calculations : Yes
Used interface : Native Win32 interface for Win NT & 2000
Gap handling : Appended to previous track
Used output format : User Defined Encoder
Selected bitrate : 1024 kBit/s
Quality : High
Add ID3 tag : No
Command line compressor : C:\Program Files (x86)\Exact Audio Copy\Flac\flac.exe
Additional command line options : -8 -V -T "ARTIST=%artist%" -T "TITLE=%title%" -T "ALBUM=%albumtitle%" -T "DATE=%year%" -T "TRACKNUMBER=%tracknr%" -T "GENRE=%genre%" -T "PERFORMER=%albuminterpret%" -T "COMPOSER=%composer%" %haslyrics%--tag-from-file=LYRICS="%lyricsfile%"%haslyrics% -T "ALBUMARTIST=%albumartist%" -T "DISCNUMBER=%cdnumber%" -T "TOTALDISCS=%totalcds%" -T "TOTALTRACKS=%numtracks%" -T "COMMENT=%comment%" %source% -o %dest%
TOC of the extracted CD
Track | Start | Length | Start sector | End sector
---------------------------------------------------------
1 | 0:00.00 | 3:44.12 | 0 | 16811
2 | 3:44.12 | 3:55.30 | 16812 | 34466
3 | 7:39.42 | 4:50.63 | 34467 | 56279
4 | 12:30.30 | 3:27.34 | 56280 | 71838
5 | 15:57.64 | 4:33.52 | 71839 | 92365
6 | 20:31.41 | 3:45.34 | 92366 | 109274
7 | 24:17.00 | 3:35.13 | 109275 | 125412
8 | 27:52.13 | 3:23.50 | 125413 | 140687
9 | 31:15.63 | 4:00.10 | 140688 | 158697
Track 1
Filename E:\RIPPING\01 Blue Nile.wav
Pre-gap length 0:00:02.00
Peak level 97.2 %
Extraction speed 4.7 X
Track quality 100.0 %
Test CRC D8B7FC35
Copy CRC D8B7FC35
Track not present in AccurateRip database
Copy OK
Track 2
Filename E:\RIPPING\02 Eyes for You (feat. Corey Frye).wav
Peak level 97.3 %
Extraction speed 4.3 X
Track quality 99.9 %
Test CRC 8B17D027
Copy CRC 8B17D027
Track not present in AccurateRip database
Copy OK
Track 3
Filename E:\RIPPING\03 Big Easy (feat. Devon Parker).wav
Peak level 97.4 %
Extraction speed 4.9 X
Track quality 99.9 %
Test CRC 513422DF
Copy CRC 513422DF
Track not present in AccurateRip database
Copy OK
Track 4
Filename E:\RIPPING\04 A Trip Around the Sun Pt. II.wav
Peak level 97.2 %
Extraction speed 4.7 X
Track quality 99.9 %
Test CRC 78C45534
Copy CRC 78C45534
Track not present in AccurateRip database
Copy OK
Track 5
Filename E:\RIPPING\05 Under the Oaks.wav
Peak level 97.4 %
Extraction speed 6.3 X
Track quality 100.0 %
Test CRC 8363405C
Copy CRC 8363405C
Track not present in AccurateRip database
Copy OK
Track 6
Filename E:\RIPPING\06 Ain't Lyin' (feat. Jonathan 'Skippy' Huvard).wav
Peak level 97.3 %
Extraction speed 5.4 X
Track quality 99.9 %
Test CRC 396A883E
Copy CRC 396A883E
Track not present in AccurateRip database
Copy OK
Track 7
Filename E:\RIPPING\07 Black Diamond (feat. Jason Hann).wav
Peak level 97.3 %
Extraction speed 6.7 X
Track quality 100.0 %
Test CRC 0BC9D6C7
Copy CRC 0BC9D6C7
Track not present in AccurateRip database
Copy OK
Track 8
Filename E:\RIPPING\08 Sunshine (feat. Ivan Neville).wav
Peak level 97.3 %
Extraction speed 6.9 X
Track quality 100.0 %
Test CRC 247AC679
Copy CRC 247AC679
Track not present in AccurateRip database
Copy OK
Track 9
Filename E:\RIPPING\09 Sky High.wav
Peak level 97.2 %
Extraction speed 7.2 X
Track quality 100.0 %
Test CRC 2A4D24F7
Copy CRC 2A4D24F7
Track not present in AccurateRip database
Copy OK
None of the tracks are present in the AccurateRip database
No errors occurred
End of status report
---- CUETools DB Plugin V2.1.6
[CTDB TOCID: Icwu9RQ4S5pdJlm6.CoQEzD0vNo-] found
Submit result: Icwu9RQ4S5pdJlm6.CoQEzD0vNo- has been confirmed
Track | CTDB Status
1 | (1/1) Accurately ripped
2 | (1/1) Accurately ripped
3 | (1/1) Accurately ripped
4 | (1/1) Accurately ripped
5 | (1/1) Accurately ripped
6 | (1/1) Accurately ripped
7 | (1/1) Accurately ripped
8 | (1/1) Accurately ripped
9 | (1/1) Accurately ripped
==== Log checksum 4B5E0FC98CADFACB6E6499EEF7C2A106C77DCD3A0D2DE15B09524320FAACEEEF ====
 
Содержание индексной карты (.CUE)
REM GENRE Funk
REM DATE 2017
REM DISCID 81084309
REM COMMENT "ExactAudioCopy v1.1"
PERFORMER "Analog Son"
TITLE "Black Diamond"
FILE "1. Blue Nile.wav" WAVE
TRACK 01 AUDIO
TITLE "Blue Nile"
PERFORMER "Analog Son"
INDEX 01 00:00:00
FILE "2. Eyes for You (feat. Corey Frye).wav" WAVE
TRACK 02 AUDIO
TITLE "Eyes for You (feat. Corey Frye)"
PERFORMER "Analog Son"
INDEX 01 00:00:00
FILE "3. Big Easy (feat. Devon Parker).wav" WAVE
TRACK 03 AUDIO
TITLE "Big Easy (feat. Devon Parker)"
PERFORMER "Analog Son"
INDEX 01 00:00:00
FILE "4. A Trip Around the Sun Pt. II.wav" WAVE
TRACK 04 AUDIO
TITLE "A Trip Around the Sun Pt. II"
PERFORMER "Analog Son"
INDEX 01 00:00:00
FILE "5. Under the Oaks.wav" WAVE
TRACK 05 AUDIO
TITLE "Under the Oaks"
PERFORMER "Analog Son"
INDEX 01 00:00:00
FILE "6. Ain't Lyin' (feat. Jonathan 'Skippy' Huvard).wav" WAVE
TRACK 06 AUDIO
TITLE "Ain't Lyin' (feat. Jonathan 'Skippy' Huvard)"
PERFORMER "Analog Son"
INDEX 01 00:00:00
FILE "7. Black Diamond (feat. Jason Hann).wav" WAVE
TRACK 07 AUDIO
TITLE "Black Diamond (feat. Jason Hann)"
PERFORMER "Analog Son"
INDEX 01 00:00:00
FILE "8. Sunshine (feat. Ivan Neville).wav" WAVE
TRACK 08 AUDIO
TITLE "Sunshine (feat. Ivan Neville)"
PERFORMER "Analog Son"
INDEX 01 00:00:00
FILE "9. Sky High.wav" WAVE
TRACK 09 AUDIO
TITLE "Sky High"
PERFORMER "Analog Son"
INDEX 01 00:00:00
 
Лог проверки качества
-----------------------
DON'T MODIFY THIS FILE
-----------------------
PERFORMER: auCDtect Task Manager, ver. 1.5.1RC4 build 1.5.1.5
Copyright (c) 2008-2010 y-soft. All rights reserved
http://y-soft.org
ANALYZER: auCDtect: CD records authenticity detector, version 0.8.2
Copyright (c) 2004 Oleg Berngardt. All rights reserved.
Copyright (c) 2004 Alexander Djourik. All rights reserved.
FILE: 9. Sky High.flac
Size: 29450494 Hash: 5844A788A8F4CA0D5F6F56FB352590AD Accuracy: -m0
Conclusion: CDDA 99%
Signature: 1CEB2BEC0F019C10C8572D367F59C51A49024950
FILE: 8. Sunshine (feat. Ivan Neville).flac
Size: 24335455 Hash: CABA241AC52E2A47FF0C7A9C6CCC4CD1 Accuracy: -m0
Conclusion: CDDA 99%
Signature: 90BC856FD08261149B712E59A4C7B37ECCEAAEDC
FILE: 7. Black Diamond (feat. Jason Hann).flac
Size: 27020536 Hash: 05CEAECA43396858595CABF9A867D660 Accuracy: -m0
Conclusion: CDDA 100%
Signature: A816573EFB0B7FD25C3F0DCC63D1E48EBAE0826D
FILE: 6. Ain't Lyin' (feat. Jonathan 'Skippy' Huvard).flac
Size: 28398719 Hash: 662843E613D96BE0809887419CFFD8B4 Accuracy: -m0
Conclusion: CDDA 100%
Signature: FAB7772219B691E6D131210941063A0BC2A3C9B6
FILE: 5. Under the Oaks.flac
Size: 31739343 Hash: 15E75D6EC96204293F056AE7130E687E Accuracy: -m0
Conclusion: CDDA 99%
Signature: 81236F9FE7E6A90B407071C8344A98B37B08EFDA
FILE: 4. A Trip Around the Sun Pt. II.flac
Size: 26093152 Hash: FDD285834F8688FD59C41BE048C720E4 Accuracy: -m0
Conclusion: CDDA 99%
Signature: 2CB54B22B9ADA8BC4F59EAB432001FE68040E640
FILE: 3. Big Easy (feat. Devon Parker).flac
Size: 33839319 Hash: 62A9C0969355D34961321F2004BA2B20 Accuracy: -m0
Conclusion: CDDA 100%
Signature: 4274B57C44311C12CB7678C44EC56FB627EAA6AE
FILE: 2. Eyes for You (feat. Corey Frye).flac
Size: 28301905 Hash: 4EF82D15F98A1A669BB8D08566ED9A65 Accuracy: -m0
Conclusion: CDDA 100%
Signature: EB6E7AA3EDEB29DEF6413B2B474948409C94D471
FILE: 1. Blue Nile.flac
Size: 27415497 Hash: F6F9ED2CA1E896FB4CFCD8D368D1EB8A Accuracy: -m0
Conclusion: CDDA 100%
Signature: CDF3A8D5867EAFB294DFDB8802C7D55C67651206
 
Об исполнителе (группе)
Analog Son has come up with many wild creations and a futuristic Funk sound, while honoring the 1970s Funk foundation. Hailing from Denver, CO, the Analog Son duo has had great success recruiting top-notch musicians for their collaborations. It's no secret; the two just know how to produce some excellent music!
Black Diamond, features a who's who of performers—Ivan Neville, The Shady Horns, aka Ryan Zoidis and Eric "Benny" Bloom of Lettuce, as well as Joe Tatton of the New Mastersounds, Terrence Houston of George Porter Jr. & Runnin' Pardners, and Jason Hann of The String Cheese Incident on percussion.
Black Diamond finds Analog Son in fine form. I think it's their best record yet. You can hear how they're evolving, and grooving hard.
I love how Black Diamond features more New Orleans style Funk than their first two albums. It sounds to me like they've been spending some time in the Big Easy, as well as collaborating with New Orleans musicians as they roll through Colorado.
The stand out New Orleans style tunes are the following...
Of course, the one featuring Ivan Neville, shines. "Sunshine" is a funky love song with a dope organ groove, and tons of soul.
"Under The Oaks" is instrumental Funk at its finest! It's got that New Orleans bounce, and joyful horns propelling it along. Drum & bass are tight in the pocket, as Jordan Linit dances his guitar (with plenty of wah-wah) over this killer groove.
"Ain't Lyin'" is a bluesy, funky, soulful Rock song that reminds me of late night bands in New Orleans bars.
Certainly, their ode to the Crescent City, "Big Easy," with Devon Parker's super soulful vocals captures that New Orleans Funk vibe. It's a musical story about the joys of the city, and feels nice and easy with her vocals complimenting the players' jamming. Pay attention for the laid-back, funky breakdown...then she comes back in to take the tune to its New Orleans party music finish.
Another great guest vocal appearance comes from Corey Frye, the lead singer of The Main Squeeze. "Eyes For You" is the perfect intersection of old-school Funk and modern Funk because the band gets tight in the pocket playing the Funk as if it were 1974, as Frye sings his love for his lady and shows he has the vocal chops of a classic Soul Man (while being one of the best new voices in modern Funk & Soul music). Like the rest of the record, this tune proves Analog Son can play classic Funk with a contemporary approach, impeccable production, and unique composition that is among the best on today's Funk music scene.
The instrumental Funk tunes on Black Diamond are breathtaking. The album starts with heavy wah-wah and hot horns on "Blue Nile" and the band finds the perfect groove from the get go. "A Trip Around The Sun" is another impressive instrumental Funk song, with sensational keyboard work to compliment Jordan Linit's rapid wah-wah. "Sky High" closes out Black Diamond with a dope organ jam and happy horns, grooving on top of a badass backbeat and deft drumming.
Analog Son always puts a glide in your stride and a dip in your hip. Black Diamond shows the band evolving into a modern Funk powerhouse that keeps getting better.
Because they record their albums with vintage studio equipment, there's an organic quality that seeps onto this record. You definitely hear and feel the rawness of their analog recording techniques. Analog Son's visceral music blows the mind as it takes old-school Funk sky high and on into the 2000s.
https://www.allaboutjazz.com/black-diamond-analog-son-self-produced-review-by-joe-gatto.php
http://www.analogson.com

Раздаю до первых 5-ти скачавших, на раздачи не возвращаюсь...
Приватный:
Нет (DHT включён)
Размер:
244.73 Мб (256,612,895 байт) » файлов: 14
Участники:
0 раздают, 0 качают (0 участников всего)
Внешние участники:
2 раздают, 1 качают (3 участников всего) [ Обновить ]
Есть вопросы - пишите личное сообщение пользователю M0p94ok.
16:01
60
Нет комментариев. Ваш будет первым!