Поиск

2007 Kristijan Beluhan - Skretanje {Aquarius 152-07} [CD]

2007 Kristijan Beluhan - Skretanje {Aquarius 152-07} [CD]
Треклист:
01 Istina 4:03
02 Lice 4:31
03 Spojili smo ruke 4:35
04 Soba 5:12
05 Pčela 3:59
06 Zadnji sati ljeta 4:24
07 Labud i noj 4:03
08 Na vrhu 3:46
09 Plavi dan 4:17
10 Nismo se čuli odavno 4:30
11 Skretanje 5:21
12 Ulični sat 6:29
Лог создания рипа
Exact Audio Copy V1.0 beta 3 from 29. August 2011
EAC extraction logfile from 4. July 2018, 11:52
Kristijana Beluhan / Skretanje
Used drive  : TSSTcorpCD/DVDW SH-S162L   Adapter: 2  ID: 0
Read mode               : Secure
Utilize accurate stream : Yes
Defeat audio cache      : Yes
Make use of C2 pointers : No
Read offset correction                      : 6
Overread into Lead-In and Lead-Out          : No
Fill up missing offset samples with silence : Yes
Delete leading and trailing silent blocks   : No
Null samples used in CRC calculations       : Yes
Used interface                              : Native Win32 interface for Win NT & 2000
Gap handling                                : Appended to previous track
Used output format              : User Defined Encoder
Selected bitrate                : 896 kBit/s
Quality                         : High
Add ID3 tag                     : No
Command line compressor         : C:\Program Files\Exact Audio Copy\FLAC\FLAC.EXE
Additional command line options : -V -8 -T "Genre=%genre%" -T "Artist=%artist%" -T "Title=%title%" -T "Album=%albumtitle%" -T "Date=%year%" -T "Tracknumber=%tracknr%" -T "Comment=%comment%" %source%
TOC of the extracted CD
     Track |   Start  |  Length  | Start sector | End sector
    ---------------------------------------------------------
        1  |  0:00.00 |  4:03.39 |         0    |    18263
        2  |  4:03.39 |  4:32.12 |     18264    |    38675
        3  |  8:35.51 |  4:52.72 |     38676    |    60647
        4  | 13:28.48 |  5:12.33 |     60648    |    84080
        5  | 18:41.06 |  4:01.54 |     84081    |   102209
        6  | 22:42.60 |  4:26.50 |    102210    |   122209
        7  | 27:09.35 |  4:05.14 |    122210    |   140598
        8  | 31:14.49 |  3:47.44 |    140599    |   157667
        9  | 35:02.18 |  4:19.34 |    157668    |   177126
       10  | 39:21.52 |  4:35.34 |    177127    |   197785
       11  | 43:57.11 |  5:23.11 |    197786    |   222021
       12  | 49:20.22 |  6:24.69 |    222022    |   250890
Track  1
     Filename D:\Torrent\Beluhan, Kristijan\01 Istina.wav
     Pre-gap length  0:00:02.00
     Peak level 99.6 %
     Extraction speed 4.5 X
     Track quality 100.0 %
     Test CRC 8D46CE57
     Copy CRC 8D46CE57
     Copy OK
Track  2
     Filename D:\Torrent\Beluhan, Kristijan\02 Lice.wav
     Peak level 99.6 %
     Extraction speed 5.1 X
     Track quality 100.0 %
     Test CRC 959588F4
     Copy CRC 959588F4
     Copy OK
Track  3
     Filename D:\Torrent\Beluhan, Kristijan\03 Spojili Smo Ruke.wav
     Pre-gap length  0:00:00.29
     Peak level 99.6 %
     Extraction speed 5.6 X
     Track quality 100.0 %
     Test CRC 5161CEBA
     Copy CRC 5161CEBA
     Copy OK
Track  4
     Filename D:\Torrent\Beluhan, Kristijan\04 Soba.wav
     Pre-gap length  0:00:01.02
     Peak level 99.6 %
     Extraction speed 5.6 X
     Track quality 99.9 %
     Test CRC D28CAAB0
     Copy CRC D28CAAB0
     Copy OK
Track  5
     Filename D:\Torrent\Beluhan, Kristijan\05 Pcela.wav
     Peak level 99.6 %
     Extraction speed 6.3 X
     Track quality 100.0 %
     Test CRC 2F046737
     Copy CRC 2F046737
     Copy OK
Track  6
     Filename D:\Torrent\Beluhan, Kristijan\06 Zadnji Sat.wav
     Pre-gap length  0:00:02.00
     Peak level 99.6 %
     Extraction speed 6.7 X
     Track quality 100.0 %
     Test CRC 2FADB2FC
     Copy CRC 2FADB2FC
     Copy OK
Track  7
     Filename D:\Torrent\Beluhan, Kristijan\07 Labud I Noj.wav
     Pre-gap length  0:00:02.00
     Peak level 99.6 %
     Extraction speed 7.0 X
     Track quality 100.0 %
     Test CRC E7F015F8
     Copy CRC E7F015F8
     Copy OK
Track  8
     Filename D:\Torrent\Beluhan, Kristijan\08 Ptice.wav
     Pre-gap length  0:00:02.00
     Peak level 99.6 %
     Extraction speed 7.2 X
     Track quality 100.0 %
     Test CRC 079AC4AB
     Copy CRC 079AC4AB
     Copy OK
Track  9
     Filename D:\Torrent\Beluhan, Kristijan\09 Plavi Dan.wav
     Pre-gap length  0:00:00.47
     Peak level 99.6 %
     Extraction speed 7.6 X
     Track quality 100.0 %
     Test CRC 371AF8F0
     Copy CRC 371AF8F0
     Copy OK
Track 10
     Filename D:\Torrent\Beluhan, Kristijan\10 Nismo Se.wav
     Pre-gap length  0:00:02.00
     Peak level 99.6 %
     Extraction speed 7.9 X
     Track quality 100.0 %
     Test CRC D2389E3D
     Copy CRC D2389E3D
     Copy OK
Track 11
     Filename D:\Torrent\Beluhan, Kristijan\11 Skretanje.wav
     Pre-gap length  0:00:04.71
     Peak level 99.6 %
     Extraction speed 8.5 X
     Track quality 100.0 %
     Test CRC F60C78E4
     Copy CRC F60C78E4
     Copy OK
Track 12
     Filename D:\Torrent\Beluhan, Kristijan\12 Ulicni Sat.wav
     Pre-gap length  0:00:02.00
     Peak level 99.6 %
     Extraction speed 8.8 X
     Track quality 100.0 %
     Test CRC DD49D20B
     Copy CRC DD49D20B
     Copy OK
No errors occurred
End of status report
==== Log checksum 9A99103B23DA2E2345490F887E4A44AEE2A32756DFD5AF4FA3CEC3A641A3AD40 ====
Содержание индексной карты (.CUE)
REM GENRE Funk
REM DATE 2007
REM DISCID 950D110C
REM COMMENT "ExactAudioCopy v1.0b3"
PERFORMER "Kristijana Beluhan"
TITLE "Skretanje"
FILE "01 Istina.wav" WAVE
  TRACK 01 AUDIO
    TITLE "Istina"
    PERFORMER "Kristijana Beluhan"
    INDEX 01 00:00:00
FILE "02 Lice.wav" WAVE
  TRACK 02 AUDIO
    TITLE "Lice"
    PERFORMER "Kristijana Beluhan"
    INDEX 01 00:00:00
  TRACK 03 AUDIO
    TITLE "Spojili Smo Ruke"
    PERFORMER "Kristijana Beluhan"
    INDEX 00 04:31:58
FILE "03 Spojili Smo Ruke.wav" WAVE
    INDEX 01 00:00:00
  TRACK 04 AUDIO
    TITLE "Soba "
    PERFORMER "Kristijana Beluhan"
    INDEX 00 04:51:70
FILE "04 Soba.wav" WAVE
    INDEX 01 00:00:00
FILE "05 Pcela.wav" WAVE
  TRACK 05 AUDIO
    TITLE "Pcela "
    PERFORMER "Kristijana Beluhan"
    INDEX 01 00:00:00
  TRACK 06 AUDIO
    TITLE "Zadnji Sat"
    PERFORMER "Kristijana Beluhan"
    INDEX 00 03:59:54
FILE "06 Zadnji Sat.wav" WAVE
    INDEX 01 00:00:00
  TRACK 07 AUDIO
    TITLE "Labud I Noj "
    PERFORMER "Kristijana Beluhan"
    INDEX 00 04:24:50
FILE "07 Labud I Noj.wav" WAVE
    INDEX 01 00:00:00
  TRACK 08 AUDIO
    TITLE "Ptice"
    PERFORMER "Kristijana Beluhan"
    INDEX 00 04:03:14
FILE "08 Ptice.wav" WAVE
    INDEX 01 00:00:00
  TRACK 09 AUDIO
    TITLE "Plavi Dan "
    PERFORMER "Kristijana Beluhan"
    INDEX 00 03:46:72
FILE "09 Plavi Dan.wav" WAVE
    INDEX 01 00:00:00
  TRACK 10 AUDIO
    TITLE "Nismo Se "
    PERFORMER "Kristijana Beluhan"
    INDEX 00 04:17:34
FILE "10 Nismo Se.wav" WAVE
    INDEX 01 00:00:00
  TRACK 11 AUDIO
    TITLE "Skretanje"
    PERFORMER "Kristijana Beluhan"
    INDEX 00 04:30:38
FILE "11 Skretanje.wav" WAVE
    INDEX 01 00:00:00
  TRACK 12 AUDIO
    TITLE "Ulicni Sat "
    PERFORMER "Kristijana Beluhan"
    INDEX 00 05:21:11
FILE "12 Ulicni Sat.wav" WAVE
    INDEX 01 00:00:00
Приватный:
Нет (DHT включён)
Размер:
438.31 Мб (459,597,494 байт) » файлов: 27
Участники:
5 раздают, 0 качают (5 участников всего)
Внешние участники:
2 раздают, 1 качают (3 участников всего) [ Обновить ]
Есть вопросы - пишите личное сообщение пользователю M0p94ok.
16:04
46
Нет комментариев. Ваш будет первым!