Поиск

(Neo-Soul, Blues) [CD] Lizz Wright - Grace - 2017, FLAC (tracks+.cue), lossless

(Neo-Soul, Blues) [CD] Lizz Wright - Grace - 2017, FLAC (tracks+.cue), lossless
Треклист:
Lizz Wright - Grace
Жанр: Neo-Soul, Blues
Носитель: CD
Страна-производитель диска (релиза): EU
Год издания: 2017
Издатель (лейбл): Concord
Номер по каталогу: 08880702028654
Страна исполнителя (группы): США
Аудиокодек: FLAC (*.flac)
Тип рипа: tracks+.cue
Битрейт аудио: lossless
Продолжительность: 43:50
Источник (релизер): gagarin
Наличие сканов в содержимом раздачи: да
Треклист:
01. Barley (5:08)
02. Seems I'm Never Tired Lovin' You (4:44)
03. Singing in My Soul (3:47)
04. Southern Nights (4:14)
05. What Would I Do Without You (3:18)
06. Grace (4:55)
07. Stars Fell on Alabama (3:52)
08. Every Grain of Sand (5:30)
09. Wash Me Clean (4:34)
10. All the Way Here (3:48)
 
Лог создания рипа
Exact Audio Copy V1.3 from 2. September 2016
EAC extraction logfile from 6. July 2018, 18:06
Lizz Wright / Grace
Used drive : Optiarc BD ROM BC-5650H Adapter: 1 ID: 1
Read mode : Secure
Utilize accurate stream : Yes
Defeat audio cache : Yes
Make use of C2 pointers : No
Read offset correction : 48
Overread into Lead-In and Lead-Out : No
Fill up missing offset samples with silence : Yes
Delete leading and trailing silent blocks : No
Null samples used in CRC calculations : Yes
Used interface : Native Win32 interface for Win NT & 2000
Gap handling : Appended to previous track
Used output format : User Defined Encoder
Selected bitrate : 1024 kBit/s
Quality : High
Add ID3 tag : No
Command line compressor : C:\Program Files\flac-1.3.2-win\win32\flac.exe
Additional command line options : -8 -e -p -V -T "ARTIST=%artist%" -T "TITLE=%title%" -T "ALBUM=%albumtitle%" -T "DATE=%year%" -T "TRACKNUMBER=%tracknr%" -T "GENRE=%genre%" -T "PERFORMER=%albuminterpret%" -T "COMPOSER=%composer%" %haslyrics%--tag-from-file=LYRICS="%lyricsfile%"%haslyrics% -T "ALBUMARTIST=%albumartist%" -T "DISCNUMBER=%cdnumber%" -T "TOTALDISCS=%totalcds%" -T "TOTALTRACKS=%numtracks%" -T "COMMENT=%comment%" %source% -o %dest%
TOC of the extracted CD
Track | Start | Length | Start sector | End sector
---------------------------------------------------------
1 | 0:00.00 | 5:07.62 | 0 | 23086
2 | 5:07.62 | 4:43.67 | 23087 | 44378
3 | 9:51.54 | 3:46.70 | 44379 | 61398
4 | 13:38.49 | 4:14.10 | 61399 | 80458
5 | 17:52.59 | 3:17.62 | 80459 | 95295
6 | 21:10.46 | 4:55.28 | 95296 | 117448
7 | 26:05.74 | 3:52.21 | 117449 | 134869
8 | 29:58.20 | 5:29.63 | 134870 | 159607
9 | 35:28.08 | 4:34.14 | 159608 | 180171
10 | 40:02.22 | 3:47.71 | 180172 | 197267
Track 1
Filename Z:\home\encoding\FLAC\Lizz Wright - Grace (2017) [FLAC] {}\01 - Barley.wav
Pre-gap length 0:00:02.00
Peak level 99.1 %
Extraction speed 10.3 X
Track quality 100.0 %
Test CRC AA9884FF
Copy CRC AA9884FF
Accurately ripped (confidence 62) [804D34A9] (AR v2)
Copy OK
Track 2
Filename Z:\home\encoding\FLAC\Lizz Wright - Grace (2017) [FLAC] {}\02 - Seems I'm Never Tired Lovin' You.wav
Peak level 100.0 %
Extraction speed 11.6 X
Track quality 100.0 %
Test CRC 32EAB48E
Copy CRC 32EAB48E
Accurately ripped (confidence 62) [384EE528] (AR v2)
Copy OK
Track 3
Filename Z:\home\encoding\FLAC\Lizz Wright - Grace (2017) [FLAC] {}\03 - Singing In My Soul.wav
Peak level 100.0 %
Extraction speed 12.2 X
Track quality 100.0 %
Test CRC E4DE4EB6
Copy CRC E4DE4EB6
Accurately ripped (confidence 62) [9F00BDF2] (AR v2)
Copy OK
Track 4
Filename Z:\home\encoding\FLAC\Lizz Wright - Grace (2017) [FLAC] {}\04 - Southern Nights.wav
Peak level 97.7 %
Extraction speed 12.6 X
Track quality 100.0 %
Test CRC FE011978
Copy CRC FE011978
Accurately ripped (confidence 62) [7D180D9D] (AR v2)
Copy OK
Track 5
Filename Z:\home\encoding\FLAC\Lizz Wright - Grace (2017) [FLAC] {}\05 - What Would I Do Without You.wav
Peak level 99.3 %
Extraction speed 12.9 X
Track quality 100.0 %
Test CRC 1B9000C1
Copy CRC 1B9000C1
Accurately ripped (confidence 62) [AE760274] (AR v2)
Copy OK
Track 6
Filename Z:\home\encoding\FLAC\Lizz Wright - Grace (2017) [FLAC] {}\06 - Grace.wav
Peak level 98.4 %
Extraction speed 13.8 X
Track quality 100.0 %
Test CRC F48463E1
Copy CRC F48463E1
Accurately ripped (confidence 62) [E927EF49] (AR v2)
Copy OK
Track 7
Filename Z:\home\encoding\FLAC\Lizz Wright - Grace (2017) [FLAC] {}\07 - Stars Fell On Alabama.wav
Peak level 97.5 %
Extraction speed 14.3 X
Track quality 100.0 %
Test CRC 40F5FE02
Copy CRC 40F5FE02
Accurately ripped (confidence 62) [2E36F62B] (AR v2)
Copy OK
Track 8
Filename Z:\home\encoding\FLAC\Lizz Wright - Grace (2017) [FLAC] {}\08 - Every Grain Of Sand.wav
Peak level 98.1 %
Extraction speed 15.2 X
Track quality 100.0 %
Test CRC 10BC0EDC
Copy CRC 10BC0EDC
Accurately ripped (confidence 62) [1F9C4A6A] (AR v2)
Copy OK
Track 9
Filename Z:\home\encoding\FLAC\Lizz Wright - Grace (2017) [FLAC] {}\09 - Wash Me Clean.wav
Peak level 97.7 %
Extraction speed 13.4 X
Track quality 99.9 %
Test CRC DBABCAA4
Copy CRC DBABCAA4
Accurately ripped (confidence 62) [0F190FBC] (AR v2)
Copy OK
Track 10
Filename Z:\home\encoding\FLAC\Lizz Wright - Grace (2017) [FLAC] {}\10 - All The Way Here.wav
Peak level 97.9 %
Extraction speed 15.7 X
Track quality 100.0 %
Test CRC E044C856
Copy CRC E044C856
Accurately ripped (confidence 62) [E6B15E42] (AR v2)
Copy OK
All tracks accurately ripped
No errors occurred
End of status report
==== Log checksum 8309945BC9F26C4C9A4BBF6A8FC4C83A63918429E3DF783681EBA34F9885980D ====
 
Содержание индексной карты (.CUE)
REM GENRE Jazz
REM DATE 2017
REM DISCID 6D0A460A
REM COMMENT "ExactAudioCopy v1.3"
CATALOG 0888072028654
PERFORMER "Lizz Wright"
TITLE "Grace"
FILE "01 - Barley.wav" WAVE
TRACK 01 AUDIO
TITLE "Barley"
PERFORMER "Lizz Wright"
INDEX 01 00:00:00
FILE "02 - Seems I'm Never Tired Lovin' You.wav" WAVE
TRACK 02 AUDIO
TITLE "Seems I'm Never Tired Lovin' You"
PERFORMER "Lizz Wright"
INDEX 01 00:00:00
FILE "03 - Singing in My Soul.wav" WAVE
TRACK 03 AUDIO
TITLE "Singing in My Soul"
PERFORMER "Lizz Wright"
INDEX 01 00:00:00
FILE "04 - Southern Nights.wav" WAVE
TRACK 04 AUDIO
TITLE "Southern Nights"
PERFORMER "Lizz Wright"
INDEX 01 00:00:00
FILE "05 - What Would I Do Without You.wav" WAVE
TRACK 05 AUDIO
TITLE "What Would I Do Without You?"
PERFORMER "Lizz Wright"
INDEX 01 00:00:00
FILE "06 - Grace.wav" WAVE
TRACK 06 AUDIO
TITLE "Grace"
PERFORMER "Lizz Wright"
INDEX 01 00:00:00
FILE "07 - Stars Fell on Alabama.wav" WAVE
TRACK 07 AUDIO
TITLE "Stars Fell on Alabama"
PERFORMER "Lizz Wright"
INDEX 01 00:00:00
FILE "08 - Every Grain of Sand.wav" WAVE
TRACK 08 AUDIO
TITLE "Every Grain of Sand"
PERFORMER "Lizz Wright"
INDEX 01 00:00:00
FILE "09 - Wash Me Clean.wav" WAVE
TRACK 09 AUDIO
TITLE "Wash Me Clean"
PERFORMER "Lizz Wright"
INDEX 01 00:00:00
FILE "10 - All the Way Here.wav" WAVE
TRACK 10 AUDIO
TITLE "All the Way Here"
PERFORMER "Lizz Wright"
INDEX 01 00:00:00
 
Отчет CUETools
[CUETools log; Date: 10.07.2018 13:11:15; Version: 2.1.5]
[CTDB TOCID: gsH7w0rB.CV9xYJYYfZ9LjnY73A-] found.
Track | CTDB Status
1 | (230/231) Accurately ripped
2 | (231/231) Accurately ripped
3 | (231/231) Accurately ripped
4 | (229/231) Accurately ripped
5 | (231/231) Accurately ripped
6 | (230/231) Accurately ripped
7 | (231/231) Accurately ripped
8 | (231/231) Accurately ripped
9 | (231/231) Accurately ripped
10 | (231/231) Accurately ripped
[AccurateRip ID: 0010b163-0084e07e-6d0a460a] found.
Track [ CRC | V2 ] Status
01 [fb328d2b|804d34a9] (03+65/68) Accurately ripped
02 [d6ce84ad|384ee528] (03+65/68) Accurately ripped
03 [cb44a3a3|9f00bdf2] (03+65/68) Accurately ripped
04 [66e5e9e9|7d180d9d] (03+65/68) Accurately ripped
05 [b7ac5f88|ae760274] (03+65/68) Accurately ripped
06 [eee7ad31|e927ef49] (03+65/68) Accurately ripped
07 [44fa1c3a|2e36f62b] (03+65/68) Accurately ripped
08 [5088e45e|1f9c4a6a] (03+65/68) Accurately ripped
09 [935692ed|0f190fbc] (03+65/68) Accurately ripped
10 [5614995b|e6b15e42] (03+65/68) Accurately ripped
Track Peak [ CRC32 ] [W/O NULL] [ LOG ]
-- 100,0 [36F931DC] [FF6874F7]
01 99,1 [AA9884FF] [7D278EE5] CRC32
02 100,0 [32EAB48E] [BA855D80] CRC32
03 100,0 [E4DE4EB6] [2B3C5C6E] CRC32
04 97,7 [FE011978] [8F535A1E] CRC32
05 99,3 [1B9000C1] [D04B878D] CRC32
06 98,4 [F48463E1] [F839DA70] CRC32
07 97,5 [40F5FE02] [5643DF8A] CRC32
08 98,1 [10BC0EDC] [5A559386] CRC32
09 97,7 [DBABCAA4] [0405EBE6] CRC32
10 97,9 [E044C856] [7D79F25E] CRC32
 
AllMusic Review by Andy Kellman
Lizz Wright was bound to cross paths with modern roots music specialist Joe Henry. It happened in late 2016, when the singer and the producer got to work on the follow-up to the former's Freedom & Surrender. Wright co-wrote the majority of the songs for that 2015 set. For this one, Henry selected enough songs to fill seven albums, from which Wright narrowed it down to this mix of contemporary and traditional folk, gospel, blues, jazz, and soul. The result is nourishing, a lulling yet ringing affirmation of Wright's deeply rooted connection to the South and its music. Although it was recorded in Hollywood -- with Henry's associates among the core and ancillary musicians -- and consists primarily of covers, the album is Southern through and through, and as personal as any of Wright's previous recordings, with resolute faith, enduring romantic devotion, and earthly gratitude among the prominent themes. On the surface, the album's geographic connection is most evident in "Southern Nights," lucid basking compared to Allen Toussaint's hazy original version and Glen Campbell's jovial remake, and in a softly glowing version of standard "Stars Fell on Alabama." Whether the source material dates back to the early 1930s (Thomas A. Dorsey's "Singing in My Soul") or early 2017 (Rose Cousins' "Grace," from a Henry-produced session), it fits together and translates across the timeline. As usual, Wright is always in complete control of her voice, even during the three songs that feature an eight-member gospel choir. At the very end, Wright links again with Maia Sharp -- the two wrote "Real Life Painting" for Freedom & Surrender -- for "All the Way Here," the lone original. It's one of Wright's most serene performances: "Took a cold call from deep inside/The voice was sweet and sanctified." Just like the record, then.
Приватный:
Нет (DHT включён)
Размер:
266.44 Мб (279,382,942 байт) » файлов: 22
Участники:
0 раздают, 0 качают (0 участников всего)
Внешние участники:
5 раздают, 2 качают (7 участников всего) [ Обновить ]
Есть вопросы - пишите личное сообщение пользователю M0p94ok.
16:05
71
Нет комментариев. Ваш будет первым!