Поиск

(Jazz-Rock, Funk, Soul) [CD] Merl Saunders, Jerry Garcia, John Kahn, Bill Vitt - Keystone Encores, Vol.1 - 1973 (1988), FLAC (tracks+.cue), lossless

(Jazz-Rock, Funk, Soul) [CD] Merl Saunders, Jerry Garcia, John Kahn, Bill Vitt - Keystone Encores, Vol.1 - 1973 (1988), FLAC (tracks+.cue), lossless
Треклист:
Merl Saunders, Jerry Garcia, John Kahn, Bill Vitt - Keystone Encores, Vol.1
Жанр: Jazz-Rock, Funk, Soul
Носитель: CD
Страна-производитель диска (релиза): США
Год издания: 1988
Издатель (лейбл): Fantasy
Номер по каталогу: FCD-7703-2
Аудиокодек: FLAC (*.flac)
Тип рипа: tracks+.cue
Битрейт аудио: lossless
Продолжительность: 52:24
Источник (релизер): jimeez
Наличие сканов в содержимом раздачи: нет
Треклист:
01. Hi-Heel Sneakers (Higgenbotham) - 8:15
02. It's Too Late (She's Gone) (Willis) - 7:47
03. I Second That Emotion (Robinson-Cleveland) - 11:00
04. One Kind Favor (Jefferson) - 6:40
05. Money Honey (Stone) - 8:22
06. How Sweet It Is (Holland-Dozier-Holland) - 10:20
Состав:
Merl Saunders - keyboards
Jerry Garcia - guitar, vocals
John Kahn - bass
Bill Vitt - drums
Recorded live at Keystone, Berkeley, CA in July 1973.
 
Лог создания рипа
Exact Audio Copy V1.3 from 2. September 2016
EAC extraction logfile from 10. May 2017, 19:28
Various Artists / Keystone Encores
Used drive : ATAPI iHAS424 A Adapter: 1 ID: 0
Read mode : Secure
Utilize accurate stream : Yes
Defeat audio cache : Yes
Make use of C2 pointers : No
Read offset correction : 6
Overread into Lead-In and Lead-Out : No
Fill up missing offset samples with silence : Yes
Delete leading and trailing silent blocks : No
Null samples used in CRC calculations : Yes
Used interface : Native Win32 interface for Win NT & 2000
Gap handling : Appended to previous track
Used output format : User Defined Encoder
Selected bitrate : 1024 kBit/s
Quality : High
Add ID3 tag : No
Command line compressor : C:\Program Files (x86)\Exact Audio Copy\Flac\flac.exe
Additional command line options : -8 -e -p -V -T "ARTIST=%artist%" -T "TITLE=%title%" -T "ALBUM=%albumtitle%" -T "DATE=%year%" -T "TRACKNUMBER=%tracknr%" -T "GENRE=%genre%" -T "PERFORMER=%albuminterpret%" -T "COMPOSER=%composer%" %haslyrics%--tag-from-file=LYRICS="%lyricsfile%"%haslyrics% -T "ALBUMARTIST=%albumartist%" -T "DISCNUMBER=%cdnumber%" -T "TOTALDISCS=%totalcds%" -T "TOTALTRACKS=%numtracks%" -T "COMMENT=%comment%" %source% -o %dest%
TOC of the extracted CD
Track | Start | Length | Start sector | End sector
---------------------------------------------------------
1 | 0:00.00 | 8:15.25 | 0 | 37149
2 | 8:15.25 | 7:46.62 | 37150 | 72161
3 | 16:02.12 | 11:00.10 | 72162 | 121671
4 | 27:02.22 | 6:39.50 | 121672 | 151646
5 | 33:41.72 | 8:22.20 | 151647 | 189316
6 | 42:04.17 | 10:20.08 | 189317 | 235824
Track 1
Filename D:\Ripped\VA - Keystone Encores (1988) [FLAC]\01 - Merl Saunders, Jerry Garcia, John Kahn, and Bill Vitt - Hi-heel Sneakers.wav
Pre-gap length 0:00:02.00
Peak level 100.0 %
Extraction speed 3.9 X
Track quality 99.9 %
Test CRC B0601CED
Copy CRC B0601CED
Accurately ripped (confidence 12) [869D0E80] (AR v2)
Copy OK
Track 2
Filename D:\Ripped\VA - Keystone Encores (1988) [FLAC]\02 - Merl Saunders, Jerry Garcia, John Kahn, and Bill Vitt - It's Too Late (She's Gone).wav
Pre-gap length 0:00:02.13
Peak level 97.6 %
Extraction speed 5.1 X
Track quality 100.0 %
Test CRC 1ABDC4A3
Copy CRC 1ABDC4A3
Accurately ripped (confidence 12) [0D775298] (AR v2)
Copy OK
Track 3
Filename D:\Ripped\VA - Keystone Encores (1988) [FLAC]\03 - Merl Saunders, Jerry Garcia, John Kahn, and Bill Vitt - I Second That Emotion.wav
Pre-gap length 0:00:01.89
Peak level 96.9 %
Extraction speed 6.0 X
Track quality 100.0 %
Test CRC 33356170
Copy CRC 33356170
Accurately ripped (confidence 13) [8296932F] (AR v2)
Copy OK
Track 4
Filename D:\Ripped\VA - Keystone Encores (1988) [FLAC]\04 - Merl Saunders, Jerry Garcia, John Kahn, and Bill Vitt - One Kind Favor.wav
Pre-gap length 0:00:01.80
Peak level 96.7 %
Extraction speed 6.3 X
Track quality 100.0 %
Test CRC 907C8291
Copy CRC 907C8291
Accurately ripped (confidence 12) [C437F8EE] (AR v2)
Copy OK
Track 5
Filename D:\Ripped\VA - Keystone Encores (1988) [FLAC]\05 - Merl Saunders, Jerry Garcia, John Kahn, and Bill Vitt - Money Honey.wav
Pre-gap length 0:00:02.09
Peak level 96.8 %
Extraction speed 6.9 X
Track quality 100.0 %
Test CRC A27C97E2
Copy CRC A27C97E2
Accurately ripped (confidence 13) [557F5873] (AR v2)
Copy OK
Track 6
Filename D:\Ripped\VA - Keystone Encores (1988) [FLAC]\06 - Merl Saunders, Jerry Garcia, John Kahn, and Bill Vitt - How Sweet It Is.wav
Pre-gap length 0:00:01.29
Peak level 95.8 %
Extraction speed 7.5 X
Track quality 100.0 %
Test CRC FC07610D
Copy CRC FC07610D
Accurately ripped (confidence 13) [9B407EE8] (AR v2)
Copy OK
All tracks accurately ripped
No errors occurred
End of status report
---- CUETools DB Plugin V2.1.6
[CTDB TOCID: 3d1Sfm2hq_WqXqxY8uP83i0xxeU-] found
Submit result: 3d1Sfm2hq_WqXqxY8uP83i0xxeU- has been confirmed
Track | CTDB Status
1 | (41/41) Accurately ripped
2 | (41/41) Accurately ripped
3 | (41/41) Accurately ripped
4 | (41/41) Accurately ripped
5 | (41/41) Accurately ripped
6 | (41/41) Accurately ripped
==== Log checksum 17060627E983E4796BE3E0E97A43C790CFB20007E1A93DB80CD95EA3C517F4DA ====
 
Содержание индексной карты (.CUE)
REM GENRE Jazz
REM DATE 1973
REM DISCID 4C0C4806
REM COMMENT "ExactAudioCopy v1.3"
PERFORMER "Merl Saunders, Jerry Garcia, John Kahn, Bill Vitt"
TITLE "Keystone Encores"
FILE "01 - Hi-Heel Sneakers.wav" WAVE
TRACK 01 AUDIO
TITLE "Hi-Heel Sneakers"
PERFORMER "Merl Saunders, Jerry Garcia, John Kahn, Bill Vitt"
INDEX 01 00:00:00
TRACK 02 AUDIO
TITLE "It's Too Late (She's Gone)"
PERFORMER "Merl Saunders, Jerry Garcia, John Kahn, Bill Vitt"
INDEX 00 08:13:15
FILE "02 - It's Too Late (She's Gone).wav" WAVE
INDEX 01 00:00:00
TRACK 03 AUDIO
TITLE "I Second That Emotion"
PERFORMER "Merl Saunders, Jerry Garcia, John Kahn, Bill Vitt"
INDEX 00 07:44:70
FILE "03 - I Second That Emotion.wav" WAVE
INDEX 01 00:00:00
TRACK 04 AUDIO
TITLE "One Kind Favor"
PERFORMER "Merl Saunders, Jerry Garcia, John Kahn, Bill Vitt"
INDEX 00 10:58:25
FILE "04 - One Kind Favor.wav" WAVE
INDEX 01 00:00:00
TRACK 05 AUDIO
TITLE "Money Honey"
PERFORMER "Merl Saunders, Jerry Garcia, John Kahn, Bill Vitt"
INDEX 00 06:37:43
FILE "05 - Money Honey.wav" WAVE
INDEX 01 00:00:00
TRACK 06 AUDIO
TITLE "How Sweet It Is"
PERFORMER "Merl Saunders, Jerry Garcia, John Kahn, Bill Vitt"
INDEX 00 08:20:73
FILE "06 - How Sweet It Is.wav" WAVE
INDEX 01 00:00:00
 
Отчет CUETools
[CUETools log; Date: 23.05.2018 22:26:36; Version: 2.1.5]
[CTDB TOCID: 3d1Sfm2hq_WqXqxY8uP83i0xxeU-] found.
Track | CTDB Status
1 | (55/55) Accurately ripped
2 | (55/55) Accurately ripped
3 | (54/55) Accurately ripped
4 | (54/55) Accurately ripped
5 | (54/55) Accurately ripped
6 | (54/55) Accurately ripped
[AccurateRip ID: 000c535d-0041f453-4c0c4806] found.
Track [ CRC | V2 ] Status
01 [5fbb2582|869d0e80] (14+14/56) Accurately ripped
02 [63fac83c|0d775298] (14+14/57) Accurately ripped
03 [ded3010a|8296932f] (13+15/56) Accurately ripped
04 [2efd6a3a|c437f8ee] (14+14/57) Accurately ripped
05 [ea2c3c42|557f5873] (13+15/57) Accurately ripped
06 [623da1ed|9b407ee8] (12+15/55) Accurately ripped
Offsetted by -664:
01 [fd010a97] (02/56) Accurately ripped
02 [ad359aa1] (02/57) Accurately ripped
03 [771808a5] (02/56) Accurately ripped
04 [01b7c2c0] (02/57) Accurately ripped
05 [5dd8ab8c] (02/57) Accurately ripped
06 [12a53ad7] (02/55) Accurately ripped
Offsetted by -264:
01 [0477cb17] (02/56) Accurately ripped
02 [72ca81aa] (02/57) Accurately ripped
03 [c30801b8] (02/56) Accurately ripped
04 [69b1435e] (02/57) Accurately ripped
05 [422b8026] (02/57) Accurately ripped
06 [5b87a104] (02/55) Accurately ripped
Offsetted by -77:
01 [cdf39dd3] (07/56) Accurately ripped
02 [abda55e3] (08/57) Accurately ripped
03 [791c57a9] (07/56) Accurately ripped
04 [901260f9] (08/57) Accurately ripped
05 [f0959b67] (08/57) Accurately ripped
06 [59d23470] (07/55) Accurately ripped
Track Peak [ CRC32 ] [W/O NULL] [ LOG ]
-- 100,0 [4A58609A] [663F92A3]
01 100,0 [B0601CED] [E3880235] CRC32
02 97,6 [1ABDC4A3] [AA96C834] CRC32
03 96,9 [33356170] [1F955F8E] CRC32
04 96,7 [907C8291] [31FA624F] CRC32
05 96,8 [A27C97E2] [E0CE8E35] CRC32
06 95,8 [FC07610D] [A340DA12] CRC32
 
AllMusic Review by Lindsay Planer
This is the third of three CDs compiled from a two-night (July 10 and 11, 1973) stand at Keystone Korners in Berkeley. These recordings have likewise yielded a pair of additional volumes -- all of which stem from the original Live at Keystone (1973) two-LP release. Merl Saunders (keyboards) and Jerry Garcia (guitar/vocals) lead a funky rhythm section -- consisting of John Kahn (bass) and Bill Vitt (percussion) -- through a variety of adeptly chosen R&B, Motown, and blues covers. Garcia and Saunders began performing sporadically throughout the end of 1970, reconvening in the Bay Area whenever the guitarist could find time away from his day gig with the Grateful Dead. Ultimately this loose aggregate became the prototype for a somewhat more formal Jerry Garcia Band, which continued until Garcia's passing in 1995. By the time these recordings were made, this particular combo was holding court upwards of eight weeks a year and had developed a unique, laid-back persona, perfectly counterbalancing Garcia's decidedly more aggressive contributions to the Dead. The musical centerpiece of this band is undoubtedly their uncanny ability to provide multiple layers of interpretation and variation on familiar themes. The combination of Saunders' sweet and soulful organ leads and the pure tonality in Garcia's solos is flawlessly supported by round upon round of Kahn's assertively fluid interjections. The Motown cover of "How Sweet It Is" perhaps best-exemplifies this approach, as the bassist punctuates the established melody with his trademark second-nature harmonic counterpoint. Keen-eared Deadheads will undoubtedly be curious to hear the adaptations of "High Heel Sneakers," "I Second That Emotion," as well as the Chicago-style blues interpretation of Blind Lemon Jefferson's "One Kind Favor" -- which the Dead very occasionally worked into their earliest performances. The loose structure allows for extended soloing which rather inadvertently reveals a lighthearted and cherubic side to Garcia's musical companionship. This is a recommended listen for potential fans as well as the seasoned enthusiast.
Приватный:
Нет (DHT включён)
Размер:
287.13 Мб (301,074,714 байт) » файлов: 15
Участники:
0 раздают, 0 качают (0 участников всего)
Внешние участники:
5 раздают, 1 качают (6 участников всего) [ Обновить ]
Есть вопросы - пишите личное сообщение пользователю M0p94ok.
15:50
59
Нет комментариев. Ваш будет первым!