Поиск

(Funk, Soul, World Fusion) [CD] Merl Saunders - Blues from the Rainforest: A Musical Suite - 1990, FLAC (tracks+.cue), lossless

(Funk, Soul, World Fusion) [CD] Merl Saunders - Blues from the Rainforest: A Musical Suite - 1990, FLAC (tracks+.cue), lossless
Треклист:
Merl Saunders - Blues from the Rainforest: A Musical Suite
Жанр: Funk, Soul, World Fusion
Носитель: CD
Страна-производитель диска (релиза): США
Год издания: 1990
Издатель (лейбл): Sumertone
Номер по каталогу: S2CD-01
Аудиокодек: FLAC (*.flac)
Тип рипа: tracks+.cue
Битрейт аудио: lossless
Продолжительность: 1:04:22
Источник (релизер): redacted
Наличие сканов в содержимом раздачи: частично
Треклист:
01. Blues from the Rainforest (Saunders) - 15:28
02. Sunrise over Haleakala (Saunders) - 7:26
03. Blue Hill Ocean Dance (Saunders-Muruga) - 13:08
04. Afro Pearl Blue (Saunders-Muruga) - 13:41
05. Dance of the Fireflies (Saunders) - 5:24
06. Sri Lanka (Saunders-Moore) - 9:15
Состав:
Merl Saunders - synthesizers
Jerry Garcia - guitar, MIDI
Muruga, Eddie Moore - percussion
Bill Thompson - percussion, drum programming
Shakti & Karen Baker - vocals
Recorded at Aunt Monk Studios, San Francisco, CA.
 
Лог создания рипа
Exact Audio Copy V0.99 prebeta 5 from 4. May 2009
EAC extraction logfile from 14. September 2010, 19:52
Merl Saunders / Blues From The Rainforest
Used drive : DVDRW IDE 16X Adapter: 4 ID: 0
Read mode : Secure
Utilize accurate stream : Yes
Defeat audio cache : Yes
Make use of C2 pointers : No
Read offset correction : 12
Overread into Lead-In and Lead-Out : No
Fill up missing offset samples with silence : Yes
Delete leading and trailing silent blocks : No
Null samples used in CRC calculations : Yes
Used interface : Installed external ASPI interface
Gap handling : Appended to previous track
Used output format : User Defined Encoder
Selected bitrate : 128 kBit/s
Quality : High
Add ID3 tag : No
Command line compressor : C:\Program Files\Exact Audio Copy\Flac\flac.exe
Additional command line options : -8 -V -T "ARTIST=%a" -T "TITLE=%t" -T "ALBUM=%g" -T "DATE=%y" -T "TRACKNUMBER=%n" -T "TOTALTRACKS=%x" -T "GENRE=%m" -T "ALBUMARTIST=%v" -T "ALBUM ARTIST=%v" -T "COMMENT=EAC Secure Mode, Test & Copy, AccurateRip, FLAC -8" %s
TOC of the extracted CD
Track | Start | Length | Start sector | End sector
---------------------------------------------------------
1 | 0:00.00 | 15:28.28 | 0 | 69627
2 | 15:28.28 | 7:26.07 | 69628 | 103084
3 | 22:54.35 | 13:08.33 | 103085 | 162217
4 | 36:02.68 | 13:41.35 | 162218 | 223827
5 | 49:44.28 | 5:24.27 | 223828 | 248154
6 | 55:08.55 | 9:14.70 | 248155 | 289774
Track 1
Filename H:\mics uploading\B\Merl Saunders - Blues from the Rainforest (1990) [FLAC]\01 - Blues From The Rainforest.wav
Pre-gap length 0:00:02.00
Peak level 92.8 %
Track quality 100.0 %
Test CRC FBFB7F44
Copy CRC FBFB7F44
Track not present in AccurateRip database
Copy OK
Track 2
Filename H:\mics uploading\B\Merl Saunders - Blues from the Rainforest (1990) [FLAC]\02 - Sunrise Over Haleakala.wav
Pre-gap length 0:00:02.46
Peak level 89.5 %
Track quality 100.0 %
Test CRC F2837057
Copy CRC F2837057
Track not present in AccurateRip database
Copy OK
Track 3
Filename H:\mics uploading\B\Merl Saunders - Blues from the Rainforest (1990) [FLAC]\03 - Blue Hill Ocean Dance.wav
Pre-gap length 0:00:03.06
Peak level 87.7 %
Track quality 99.9 %
Test CRC C370A17B
Copy CRC C370A17B
Track not present in AccurateRip database
Copy OK
Track 4
Filename H:\mics uploading\B\Merl Saunders - Blues from the Rainforest (1990) [FLAC]\04 - Afro Pearl Blue.wav
Pre-gap length 0:00:03.64
Peak level 89.9 %
Track quality 99.9 %
Test CRC 815E1650
Copy CRC 815E1650
Track not present in AccurateRip database
Copy OK
Track 5
Filename H:\mics uploading\B\Merl Saunders - Blues from the Rainforest (1990) [FLAC]\05 - Dance Of The Fireflies.wav
Pre-gap length 0:00:02.90
Peak level 83.3 %
Track quality 100.0 %
Test CRC 85140A7C
Copy CRC 85140A7C
Track not present in AccurateRip database
Copy OK
Track 6
Filename H:\mics uploading\B\Merl Saunders - Blues from the Rainforest (1990) [FLAC]\06 - Sri Lanka.wav
Pre-gap length 0:00:02.36
Peak level 85.8 %
Track quality 100.0 %
Test CRC E9BA991B
Copy CRC E9BA991B
Track not present in AccurateRip database
Copy OK
None of the tracks are present in the AccurateRip database
No errors occurred
End of status report
 
Содержание индексной карты (.CUE)
REM GENRE "New Age"
REM DATE 1990
REM DISCID 4C0F1706
REM COMMENT "ExactAudioCopy v0.99pb5"
PERFORMER "Merl Saunders"
TITLE "Blues from the Rainforest: A Musical Suite"
FILE "01 - Blues from the Rainforest.wav" WAVE
TRACK 01 AUDIO
TITLE "Blues from the Rainforest"
PERFORMER "Merl Saunders"
INDEX 01 00:00:00
TRACK 02 AUDIO
TITLE "Sunrise over Haleakala"
PERFORMER "Merl Saunders"
INDEX 00 15:25:68
FILE "02 - Sunrise over Haleakala.wav" WAVE
INDEX 01 00:00:00
TRACK 03 AUDIO
TITLE "Blue Hill Ocean Dance"
PERFORMER "Merl Saunders"
INDEX 00 07:23:02
FILE "03 - Blue Hill Ocean Dance.wav" WAVE
INDEX 01 00:00:00
TRACK 04 AUDIO
TITLE "Afro Pearl Blue"
PERFORMER "Merl Saunders"
INDEX 00 13:04:60
FILE "04 - Afro Pearl Blue.wav" WAVE
INDEX 01 00:00:00
TRACK 05 AUDIO
TITLE "Dance of the Fireflies"
PERFORMER "Merl Saunders"
INDEX 00 13:38:42
FILE "05 - Dance of the Fireflies.wav" WAVE
INDEX 01 00:00:00
TRACK 06 AUDIO
TITLE "Sri Lanka"
PERFORMER "Merl Saunders"
INDEX 00 05:22:00
FILE "06 - Sri Lanka.wav" WAVE
INDEX 01 00:00:00
 
Отчет CUETools
[CUETools log; Date: 23.05.2018 23:40:06; Version: 2.1.5]
[CTDB TOCID: X58wU1P1yl8_lAvaJ9hqbk.HuHU-] found.
Track | CTDB Status
1 | (20/40) Accurately ripped
2 | (21/40) Accurately ripped
3 | (16/40) Accurately ripped
4 | (20/40) Accurately ripped
5 | (22/40) Accurately ripped
6 | (21/40) Accurately ripped
[AccurateRip ID: 0010bbf1-00577df7-4c0f1706] found.
Track [ CRC | V2 ] Status
01 [970c2723|4fca089c] (07+09/43) Accurately ripped
02 [821e281f|1fafada0] (07+09/43) Accurately ripped
03 [72668671|a7bdfcf0] (07+08/42) Accurately ripped
04 [77ac8079|71a2d3f3] (07+09/39) Accurately ripped
05 [0c65c65c|00ad718a] (07+09/38) Accurately ripped
06 [3c752b0f|d7e71cde] (07+09/31) Accurately ripped
Track Peak [ CRC32 ] [W/O NULL] [ LOG ]
-- 92,8 [305D29C5] [3DBB59EA]
01 92,8 [FBFB7F44] [101BD461] CRC32
02 89,5 [F2837057] [7F5BA652] CRC32
03 87,7 [C370A17B] [9C4602CC] CRC32
04 89,9 [815E1650] [498B54DD] CRC32
05 83,3 [85140A7C] [0E54A674] CRC32
06 85,8 [E9BA991B] [FF33F617] CRC32
 
AllMusic Review by Lindsay Planer
Unlike the packaging might lead one to presume, Blues From the Rainforest: A Musical Suite (1990) is primarily an environmentally themed mixture of smooth jazz and thematic world music from Merl Saunders featuring contributions from Jerry Garcia on four of the disc's six tracks. Those holding out for a return to the pair's R&B-laced funk fusion might be somewhat dismayed at the multi-layered synthetic keyboard beds and MIDI overkill -- which may have been state of the art in the late '80s, but just come off sounding dated to the more modern and discerning listener. The 15-plus-minute title track is an instrumental suite highlighted by Garcia's unmistakably emotive lead guitar lines. His solos range from dark and brooding to hopeful and buoyant throughout the suite's various sonic moods and themes. Although arguably somewhat limited, they provide an earthy balance to the heavily processed and unnatural-sounding effects that otherwise clutter the soundscape. The achingly lyrical "Sunrise Over Haleakala" features what is basically an unplugged duet between Saunders -- whose Kurzweil 100 PX acoustic piano module still ends up sounding hopelessly synthetic -- and Garcia on an actual acoustic guitar. The interaction between the two is initially hesitant, with the guitarist solemnly strumming behind somewhat strident layers of keyboard padding. After some questionable intonations, Garcia hones in on an incisive counterpoint to compliment the open and expressive melody. Of the remaining cuts, "Blue Hill Ocean Dance" and "Afro Pearl Blue" garner particular praise for Garcia's slinky leads. Courtesy of MIDI synthesizer technology, his guitar is programmed to replicate variations of sounds ranging from pan flutes to chimes. Both the spry "Dance of the Fireflies" and the ominously Eastern-flavored "Sri Lanka" continue the world music motif with slightly looser arrangements and considerable contributions from Muruga (tabla/drums) and Eddie Moore (Indian ektar/congas/drums/bells). Overall, Blues From the Rainforest: A Musical Suite is more highly recommended for enthusiasts of neo-jazz and world music than the funky and soulful R&B that defined the former coupling of Merl Saundersand Jerry Garcia.
Приватный:
Нет (DHT включён)
Размер:
363.39 Мб (381,045,990 байт) » файлов: 14
Участники:
0 раздают, 0 качают (0 участников всего)
Внешние участники:
5 раздают, 1 качают (6 участников всего) [ Обновить ]
Есть вопросы - пишите личное сообщение пользователю M0p94ok.
15:51
76
Нет комментариев. Ваш будет первым!