Поиск

(Soul-Jazz, Smooth Jazz, Soul) [CD] Hanah Spring - Dreamin' - 2018 (Japan Edition), FLAC (tracks+.cue), lossless

(Soul-Jazz, Smooth Jazz, Soul) [CD] Hanah Spring - Dreamin' - 2018 (Japan Edition), FLAC (tracks+.cue), lossless
Треклист:
Hanah Spring - Dreamin'
Жанр: Soul-Jazz, Smooth Jazz, Soul
Носитель: CD
Страна-производитель диска (релиза): Япония
Год издания: 2018
Издатель (лейбл): Tokyo Records
Номер по каталогу: TYOR-1001
Аудиокодек: FLAC (*.flac)
Тип рипа: tracks+.cue
Битрейт аудио: lossless
Продолжительность: 43:29
Источник (релизер): WaruSaru
Наличие сканов в содержимом раздачи: нет
Треклист:
01. Dreamin' (Living in a Dream) (4:20)
02. Diana (I Don't Wanna Stop) (3:56)
03. Thank You! Thank You! Thank You! (4:42)
04. Time Traveler (3:51)
05. Happysongtoday (For My Girl) (4:19)
06. Nono Mama (4:05)
07. TGIF (Interlude) (1:59)
08. Do U? (4:37)
09. Song 4 Darlin' (4:22)
10. Hoho ni Kiss Shite (3:49)
11. Kimi no Iru Basho (3:29)
 
Лог создания рипа
Exact Audio Copy V1.3 from 2. September 2016
EAC extraction logfile from 6. May 2018, 12:26
Hanah Spring / Dreamin'
Used drive : Optiarc DVD RW AD-7240S Adapter: 1 ID: 0
Read mode : Secure
Utilize accurate stream : Yes
Defeat audio cache : Yes
Make use of C2 pointers : No
Read offset correction : 48
Overread into Lead-In and Lead-Out : No
Fill up missing offset samples with silence : Yes
Delete leading and trailing silent blocks : No
Null samples used in CRC calculations : Yes
Used interface : Native Win32 interface for Win NT & 2000
Gap handling : Appended to previous track
Used output format : User Defined Encoder
Selected bitrate : 1024 kBit/s
Quality : High
Add ID3 tag : No
Command line compressor : C:\Program Files (x86)\FLAC\flac.exe
Additional command line options : -8 -e -p -V -T "ARTIST=%artist%" -T "TITLE=%title%" -T "ALBUM=%albumtitle%" -T "DATE=%year%" -T "TRACKNUMBER=%tracknr%" -T "GENRE=%genre%" -T "PERFORMER=%albuminterpret%" -T "COMPOSER=%composer%" %haslyrics%--tag-from-file=LYRICS="%lyricsfile%"%haslyrics% -T "ALBUMARTIST=%albumartist%" -T "DISCNUMBER=%cdnumber%" -T "TOTALDISCS=%totalcds%" -T "TOTALTRACKS=%numtracks%" -T "COMMENT=%comment%" %source% -o %dest%
TOC of the extracted CD
Track | Start | Length | Start sector | End sector
---------------------------------------------------------
1 | 0:00.00 | 4:20.27 | 0 | 19526
2 | 4:20.27 | 3:56.29 | 19527 | 37255
3 | 8:16.56 | 4:42.02 | 37256 | 58407
4 | 12:58.58 | 3:50.70 | 58408 | 75727
5 | 16:49.53 | 4:19.02 | 75728 | 95154
6 | 21:08.55 | 4:04.67 | 95155 | 113521
7 | 25:13.47 | 1:58.68 | 113522 | 122439
8 | 27:12.40 | 4:36.67 | 122440 | 143206
9 | 31:49.32 | 4:22.29 | 143207 | 162885
10 | 36:11.61 | 3:49.37 | 162886 | 180097
11 | 40:01.23 | 3:29.28 | 180098 | 195800
Track 1
Filename D:\JPopSuki\Songs\Hanah Spring - Dreamin' [FLAC]\01 - Dreamin' (living in a dream).wav
Pre-gap length 0:00:02.00
Peak level 100.0 %
Extraction speed 2.4 X
Track quality 100.0 %
Test CRC D4BF6C6C
Copy CRC D4BF6C6C
Track not present in AccurateRip database
Copy OK
Track 2
Filename D:\JPopSuki\Songs\Hanah Spring - Dreamin' [FLAC]\02 - Diana (I Don't Wanna Stop).wav
Pre-gap length 0:00:01.00
Peak level 100.0 %
Extraction speed 2.3 X
Track quality 99.9 %
Test CRC 8E5FE783
Copy CRC 8E5FE783
Track not present in AccurateRip database
Copy OK
Track 3
Filename D:\JPopSuki\Songs\Hanah Spring - Dreamin' [FLAC]\03 - Thank You! Thank You! Thank You!.wav
Pre-gap length 0:00:01.00
Peak level 100.0 %
Extraction speed 2.9 X
Track quality 100.0 %
Test CRC 994AF885
Copy CRC 994AF885
Track not present in AccurateRip database
Copy OK
Track 4
Filename D:\JPopSuki\Songs\Hanah Spring - Dreamin' [FLAC]\04 - Time Traveler.wav
Pre-gap length 0:00:00.98
Peak level 100.0 %
Extraction speed 3.0 X
Track quality 100.0 %
Test CRC 4DFA972B
Copy CRC 4DFA972B
Track not present in AccurateRip database
Copy OK
Track 5
Filename D:\JPopSuki\Songs\Hanah Spring - Dreamin' [FLAC]\05 - Happysongtoday (For My Girl).wav
Pre-gap length 0:00:01.00
Peak level 100.0 %
Extraction speed 3.3 X
Track quality 100.0 %
Test CRC 5AC1FAD4
Copy CRC 5AC1FAD4
Track not present in AccurateRip database
Copy OK
Track 6
Filename D:\JPopSuki\Songs\Hanah Spring - Dreamin' [FLAC]\06 - Nono Mama.wav
Pre-gap length 0:00:01.00
Peak level 100.0 %
Extraction speed 3.5 X
Track quality 100.0 %
Test CRC BFB8510D
Copy CRC BFB8510D
Track not present in AccurateRip database
Copy OK
Track 7
Filename D:\JPopSuki\Songs\Hanah Spring - Dreamin' [FLAC]\07 - TGIF (Interlude).wav
Pre-gap length 0:00:01.00
Peak level 100.0 %
Extraction speed 3.2 X
Track quality 100.0 %
Test CRC 940F48FC
Copy CRC 940F48FC
Track not present in AccurateRip database
Copy OK
Track 8
Filename D:\JPopSuki\Songs\Hanah Spring - Dreamin' [FLAC]\08 - Do U.wav
Pre-gap length 0:00:01.00
Peak level 100.0 %
Extraction speed 3.4 X
Track quality 99.9 %
Test CRC 645B48A8
Copy CRC 645B48A8
Track not present in AccurateRip database
Copy OK
Track 9
Filename D:\JPopSuki\Songs\Hanah Spring - Dreamin' [FLAC]\09 - Song 4 Darlin'.wav
Pre-gap length 0:00:01.00
Peak level 100.0 %
Extraction speed 4.0 X
Track quality 100.0 %
Test CRC B8D32A4F
Copy CRC B8D32A4F
Track not present in AccurateRip database
Copy OK
Track 10
Filename D:\JPopSuki\Songs\Hanah Spring - Dreamin' [FLAC]\10 - ほほにキスして.wav
Pre-gap length 0:00:01.00
Peak level 100.0 %
Extraction speed 4.0 X
Track quality 100.0 %
Test CRC 3211F187
Copy CRC 3211F187
Track not present in AccurateRip database
Copy OK
Track 11
Filename D:\JPopSuki\Songs\Hanah Spring - Dreamin' [FLAC]\11 - 君のいる場所.wav
Pre-gap length 0:00:01.00
Peak level 100.0 %
Extraction speed 4.1 X
Track quality 100.0 %
Test CRC FA8DA150
Copy CRC FA8DA150
Track not present in AccurateRip database
Copy OK
None of the tracks are present in the AccurateRip database
No errors occurred
End of status report
---- CUETools DB Plugin V2.1.6
[CTDB TOCID: zGFsoHIT97s.yk65SKMwCNCUeW8-] disk not present in database
Submit result: zGFsoHIT97s.yk65SKMwCNCUeW8- has been uploaded
==== Log checksum FC65DA16C497B55EDB8664D62FB49FA582F7028329D8264D27041A066ED4A904 ====
 
Содержание индексной карты (.CUE)
REM GENRE Soul
REM DATE 2018
REM DISCID 790A320B
REM COMMENT "ExactAudioCopy v1.3"
PERFORMER "Hanah Spring"
TITLE "Dreamin'"
FILE "01 - Dreamin' (Living in a Dream).wav" WAVE
TRACK 01 AUDIO
TITLE "Dreamin' (Living in a Dream)"
PERFORMER "Hanah Spring"
INDEX 01 00:00:00
TRACK 02 AUDIO
TITLE "Diana (I Don't Wanna Stop)"
PERFORMER "Hanah Spring"
INDEX 00 04:19:27
FILE "02 - Diana (I Don't Wanna Stop).wav" WAVE
INDEX 01 00:00:00
TRACK 03 AUDIO
TITLE "Thank You! Thank You! Thank You!"
PERFORMER "Hanah Spring"
INDEX 00 03:55:29
FILE "03 - Thank You! Thank You! Thank You!.wav" WAVE
INDEX 01 00:00:00
TRACK 04 AUDIO
TITLE "Time Traveler"
PERFORMER "Hanah Spring"
INDEX 00 04:41:03
FILE "04 - Time Traveler.wav" WAVE
INDEX 01 00:00:00
TRACK 05 AUDIO
TITLE "Happysongtoday (For My Girl)"
PERFORMER "Hanah Spring"
INDEX 00 03:49:70
FILE "05 - Happysongtoday (For My Girl).wav" WAVE
INDEX 01 00:00:00
TRACK 06 AUDIO
TITLE "Nono Mama"
PERFORMER "Hanah Spring"
INDEX 00 04:18:02
FILE "06 - Nono Mama.wav" WAVE
INDEX 01 00:00:00
TRACK 07 AUDIO
TITLE "TGIF (Interlude)"
PERFORMER "Hanah Spring"
INDEX 00 04:03:67
FILE "07 - TGIF (Interlude).wav" WAVE
INDEX 01 00:00:00
TRACK 08 AUDIO
TITLE "Do U?"
PERFORMER "Hanah Spring"
INDEX 00 01:57:68
FILE "08 - Do U.wav" WAVE
INDEX 01 00:00:00
TRACK 09 AUDIO
TITLE "Song 4 Darlin'"
PERFORMER "Hanah Spring"
INDEX 00 04:35:67
FILE "09 - Song 4 Darlin'.wav" WAVE
INDEX 01 00:00:00
TRACK 10 AUDIO
TITLE "Hoho ni Kiss Shite"
PERFORMER "Hanah Spring"
INDEX 00 04:21:29
FILE "10 - Hoho ni Kiss Shite.wav" WAVE
INDEX 01 00:00:00
TRACK 11 AUDIO
TITLE "Kimi no Iru Basho"
PERFORMER "Hanah Spring"
INDEX 00 03:48:37
FILE "11 - Kimi no Iru Basho.wav" WAVE
INDEX 01 00:00:00
Приватный:
Нет (DHT включён)
Размер:
277.65 Мб (291,133,933 байт) » файлов: 17
Участники:
0 раздают, 0 качают (0 участников всего)
Внешние участники:
2 раздают, 1 качают (3 участников всего) [ Обновить ]
Есть вопросы - пишите личное сообщение пользователю M0p94ok.
15:49
94
Нет комментариев. Ваш будет первым!