Поиск

(jazz, post-bop, world fusion) Toninho Horta - Once I Loved - 1992, APE (image+.cue), lossless

Toninho Horta
Once I Loved
Жанр: jazz, post-bop, world fusion
Год выпуска диска: 1992
Производитель диска: Verve Records / PolyGram Records (513 561-2)
Аудио кодек: APE
Тип рипа: image+.cue + Complete Artwork
Битрейт аудио: lossless
Продолжительность: 00:51:59
Треклист:
01. Pica Pau
02. Lullaby of Birdland
03. Stella by Starlight
04. Waltz for Mariana
05. My Funny Valentine
06. Isn't It Romantic?
07. O Amor Em Paz (Once I Loved)
08. Footprints
09. Tarde
10. Minas Train
Personnel:
Toninho Horta - guitar, vocal
Gary Peacock - bass
Billy Higgins - drums

 
log
Exact Audio Copy V0.99 prebeta 1 from 25. May 2007
EAC extraction logfile from 19. August 2007, 19:11
Toninho Horta / Once I Loved (1992)
Used drive : LITE-ON DVDRW LH-20A1P Adapter: 0 ID: 0
Read mode : Secure
Utilize accurate stream : Yes
Defeat audio cache : Yes
Make use of C2 pointers : No
Read offset correction : 6
Overread into Lead-In and Lead-Out : No
Fill up missing offset samples with silence : Yes
Delete leading and trailing silent blocks : No
Used interface : Installed external ASPI interface
Used output format : Monkey's Audio Lossless Encoder
Selected bitrate : Normal Lossless Compression
Quality : High
Add ID3 tag : Yes
Command line compressor : C:\Program Files\Monkey's Audio\MAC.exe
TOC of the extracted CD
Track | Start | Length | Start sector | End sector
---------------------------------------------------------
1 | 0:00.33 | 4:10.15 | 33 | 18797
2 | 4:10.48 | 5:49.10 | 18798 | 44982
3 | 9:59.58 | 6:08.40 | 44983 | 72622
4 | 16:08.23 | 5:46.35 | 72623 | 98607
5 | 21:54.58 | 6:25.47 | 98608 | 127529
6 | 28:20.30 | 5:42.68 | 127530 | 153247
7 | 34:03.23 | 4:29.70 | 153248 | 173492
8 | 38:33.18 | 4:19.52 | 173493 | 192969
9 | 42:52.70 | 5:09.55 | 192970 | 216199
10 | 48:02.50 | 3:57.33 | 216200 | 234007
Range status and errors
Selected range
Filename E:\Image files\Guitar Image-26\Toninho Horta - Once I Loved (1992)\Toninho Horta - Once I Loved (1992).wav
Peak level 99.5 %
Range quality 100.0 %
Copy CRC 51810798
Copy OK
No errors occurred
End of status report
 
cue
REM GENRE Jazz
REM DATE 1992
REM DISCID 750C300A
REM COMMENT "ExactAudioCopy v0.99pb1"
CATALOG 0731451356124
PERFORMER "Toninho Horta"
TITLE "Once I Loved (1992)"
FILE "Toninho Horta - Once I Loved (1992).ape" WAVE
TRACK 01 AUDIO
TITLE "Pica Pau"
PERFORMER "Toninho Horta"
INDEX 00 00:00:00
INDEX 01 00:00:33
TRACK 02 AUDIO
TITLE "Lullaby of Birdland"
PERFORMER "Toninho Horta"
INDEX 01 04:10:48
TRACK 03 AUDIO
TITLE "Stella by Starlight"
PERFORMER "Toninho Horta"
INDEX 01 09:59:58
TRACK 04 AUDIO
TITLE "Waltz for Mariana"
PERFORMER "Toninho Horta"
INDEX 01 16:08:23
TRACK 05 AUDIO
TITLE "My Funny Valentine"
PERFORMER "Toninho Horta"
INDEX 00 21:52:33
INDEX 01 21:54:58
TRACK 06 AUDIO
TITLE "Isn't it Romantic?"
PERFORMER "Toninho Horta"
INDEX 00 28:19:58
INDEX 01 28:20:30
TRACK 07 AUDIO
TITLE "O Amor em Paz (Once I Loved)"
PERFORMER "Toninho Horta"
INDEX 00 34:02:45
INDEX 01 34:03:23
TRACK 08 AUDIO
TITLE "Footprints"
PERFORMER "Toninho Horta"
INDEX 00 38:31:70
INDEX 01 38:33:18
TRACK 09 AUDIO
TITLE "Tarde"
PERFORMER "Toninho Horta"
INDEX 01 42:52:70
TRACK 10 AUDIO
TITLE "Minas Train"
PERFORMER "Toninho Horta"
INDEX 00 48:01:08
INDEX 01 48:02:50
 
AccurateRip
[CUETools log; Date: 17.07.2010 19:28:31; Version: 2.0.9]
Pregap length 00:00:33.
[CTDB TOCID: Ld9nYFHmCMtUG2pAvHVYV6j1bOY-] disk not present in database.
[AccurateRip ID: 0014550e-00a29444-750c300a] found.
Track [ CRC ] Status
01 [cfbe18fd] (1/1) Accurately ripped
02 [fb401f5a] (1/1) Accurately ripped
03 [63c7c497] (1/1) Accurately ripped
04 [1cc562ab] (1/1) Accurately ripped
05 [41fd49e6] (1/1) Accurately ripped
06 [469339b5] (1/1) Accurately ripped
07 [472563aa] (1/1) Accurately ripped
08 [8c2efc4f] (1/1) Accurately ripped
09 [284572ae] (1/1) Accurately ripped
10 [3237f7bc] (1/1) Accurately ripped
Track Peak [ CRC32 ] [W/O NULL] [ LOG ]
-- 99,5 [51810798] [E05D1BC9] CRC32
01 99,5 [6888B265] [06738C7B]
02 95,1 [591868F6] [B5C3AB08]
03 98,1 [E4D5D727] [41465BE1]
04 98,9 [6E03BD74] [5CADABE9]
05 84,8 [7606209B] [4187185B]
06 95,4 [00FB4C7D] [A5973904]
07 84,4 [676F2752] [B4F45EC2]
08 92,5 [49C2731A] [31047AB6]
09 84,0 [BAABF176] [0C3DD7DD]
10 90,1 [6BD9C2A1] [5ADB84AD]



Источник: avaxhome
16:54
371
Нет комментариев. Ваш будет первым!