Поиск

(Jazz, Bossa Nova) Gabriela Anders - Bossa Beleza - 2008, FLAC (image+.cue), lossless

Треклист:
Gabriela Anders - Bossa Beleza
Жанр: Jazz, Bossa Nova
Год выпуска диска: 2008
Производитель диска: Japan
Аудио кодек: FLAC
Тип рипа: image+.cue
Битрейт аудио: lossless
Продолжительность: 46:52
Треклист:
01. September [0:04:06.10]
02. Aqua De Beber [0:03:23.00]
03. Samba De Verao [0:03:38.45]
04. Samba De Uma Nota So [0:04:44.45]
05. (I can't get no) Satisfaction [0:05:25.40]
06. Amapola [0:03:17.65]
07. Dindi [0:05:03.70]
08. Folhas Secas [0:04:20.15]
09. Fantasia [0:05:15.35]
10. Siempre Asi [0:03:13.00]
11. Sexy Ride [0:04:23.40]
Доп. информация: Рип сделан с собственного диска. Все сканы в том числе OBI и диска включены в раздачу. Приятного прослушивания.
 
Лог EAC
Exact Audio Copy V0.99 prebeta 5 from 4. May 2009
EAC extraction logfile from 16. July 2010, 20:41
Gabriela Anders / Bossa Beleza
Used drive : TSSTcorpCDDVDW SH-S223F Adapter: 3 ID: 0
Read mode : Secure
Utilize accurate stream : Yes
Defeat audio cache : Yes
Make use of C2 pointers : No
Read offset correction : 6
Overread into Lead-In and Lead-Out : No
Fill up missing offset samples with silence : Yes
Delete leading and trailing silent blocks : No
Null samples used in CRC calculations : Yes
Used interface : Native Win32 interface for Win NT & 2000
Used output format : User Defined Encoder
Selected bitrate : 256 kBit/s
Quality : High
Add ID3 tag : No
Command line compressor : C:\Program Files\FLAC\flac.exe
Additional command line options : -8 -V %s
TOC of the extracted CD
Track | Start | Length | Start sector | End sector
---------------------------------------------------------
1 | 0:00.00 | 4:06.10 | 0 | 18459
2 | 4:06.10 | 3:23.00 | 18460 | 33684
3 | 7:29.10 | 3:38.45 | 33685 | 50079
4 | 11:07.55 | 4:44.45 | 50080 | 71424
5 | 15:52.25 | 5:25.40 | 71425 | 95839
6 | 21:17.65 | 3:17.65 | 95840 | 110679
7 | 24:35.55 | 5:03.70 | 110680 | 133474
8 | 29:39.50 | 4:20.15 | 133475 | 152989
9 | 33:59.65 | 5:15.35 | 152990 | 176649
10 | 39:15.25 | 3:13.00 | 176650 | 191124
11 | 42:28.25 | 4:23.40 | 191125 | 210889
Range status and errors
Selected range
Filename G:\Gabriela Anders - Bossa Beleza 2008\Gabriela Anders - Bossa Beleza.wav
Peak level 98.8 %
Range quality 100.0 %
Test CRC B3767FEC
Copy CRC B3767FEC
Copy OK
No errors occurred
AccurateRip summary
Track 1 not present in database
Track 2 not present in database
Track 3 not present in database
Track 4 not present in database
Track 5 not present in database
Track 6 not present in database
Track 7 not present in database
Track 8 not present in database
Track 9 not present in database
Track 10 not present in database
Track 11 not present in database
None of the tracks are present in the AccurateRip database
End of status report
16:54
369
Нет комментариев. Ваш будет первым!