Поиск

(Bossa Nova,Jazz) VA - Pure Brazil II: Instrumental Bossa Nova 2 - 2005, FLAC (image+.cue), lossless

Various Artists - Pure Brazil II: Instrumental Bossa Nova 2

Жанр: Bossa Nova,Jazz
Год выпуска диска: 2005
Производитель диска: Brazil/Ukraine
Аудио кодек: FLAC
Тип рипа: image+.cue
Битрейт аудио: lossless
Продолжительность: 00:57:20
Треклист:
01. Meirelles e Os Copa - Samba De Verao 01:57
02. Joao Donato e Seu Trio - O Morro Nao Tem Vez 03:25
03. Tamba Trio - Tristeza De Nos Dois 03:21
04. Roberto Menescal e Seu Conjunto - Rio 01:50
05. Eumir Deotato - Insensatez 03:30
06. Walter Wanderley - Vivo Sonhando 02:45
07. Tom Jobim - Preciso Aprender A Ser So 03:05
08. Baden Powell & Jimmy Pratt - Samba De Uma Nota So 01:40
09. Dom Um - Diz Que Fui Por Ai 03:02
10. Rio 65 Trio - Manha De Carnaval 03:11
11. Joao Donato - So Danзo Samba 02:01
12. Sergio Mendes & Bossa Rio - Nana 02:21
13. Meirelles & Os Copa - Samba Do Carioca 02:00
14. Luiz Eca - Cheganca 03:01
15. Roberto Menescal e Seu Conjunto - Voce E Eu 01:51
16. Tamba Trio - Reza 03:10
17. Tenorio Junior e Seu Conjunto - Consolaзao 02:27
18. Moacir Santos - Coisa n°2 04:56
19. Rio 65 Trio - Tem Do 04:27
20. Tom Jobim - Berimbau 03:12
Доп. информация: http://www.universalmusic.com.br/catalogo_resultado.aspx?idArtista=9599
Рип мой,диск из собственной коллекции,сканы 300 dpi.
EAC log:
 
скрытый текст
Exact Audio Copy V0.99 prebeta 5 from 4. May 2009
Отчёт EAC об извлечении, выполненном 18. июля 2010, 10:45
Various / Pure Brazil - Instrumental Bossa Nova 2
Дисковод: HL-DT-STDVDRAM GSA-T20N Adapter: 0 ID: 0
Режим чтения : Достоверность
Использование точного потока : Да
Отключение кэша аудио : Да
Использование указателей C2 : Нет
Коррекция смещения при чтении : 667
Способность читать области Lead-in и Lead-out : Нет
Заполнение пропущенных сэмплов тишиной : Да
Удаление блоков с тишиной в начале и конце : Нет
При вычислениях CRC использовались нулевые сэмплы : Да
Интерфейс : Встроенный Win32-интерфейс для Win NT/2000
Выходной формат : Пользовательский кодировщик
Выбранный битрейт : 896 kBit/s
Качество : Высокий
Добавление ID3-тэга : Нет
Утилита сжатия : C:\Program Files\Exact Audio Copy\FLAC\FLAC.EXE
Дополнительные параметры : -6 -V -T "ARTIST=%a" -T "TITLE=%t" -T "ALBUM=%g" -T "DATE=%y" -T "TRACKNUMBER=%n" -T "GENRE=%m" -T "COMMENT=%e" %s -o %d
TOC извлечённого CD
Трек | Старт | Длительность | Начальный сектор | Конечный сектор
---------------------------------------------------------------------
1 | 0:00.00 | 1:57.73 | 0 | 8847
2 | 1:57.73 | 3:25.38 | 8848 | 24260
3 | 5:23.36 | 3:21.01 | 24261 | 39336
4 | 8:44.37 | 1:50.32 | 39337 | 47618
5 | 10:34.69 | 3:30.22 | 47619 | 63390
6 | 14:05.16 | 2:45.41 | 63391 | 75806
7 | 16:50.57 | 3:05.25 | 75807 | 89706
8 | 19:56.07 | 1:40.20 | 89707 | 97226
9 | 21:36.27 | 3:02.22 | 97227 | 110898
10 | 24:38.49 | 3:11.60 | 110899 | 125283
11 | 27:50.34 | 2:01.60 | 125284 | 134418
12 | 29:52.19 | 2:21.37 | 134419 | 145030
13 | 32:13.56 | 2:00.03 | 145031 | 154033
14 | 34:13.59 | 3:01.25 | 154034 | 167633
15 | 37:15.09 | 1:51.31 | 167634 | 175989
16 | 39:06.40 | 3:10.25 | 175990 | 190264
17 | 42:16.65 | 2:27.61 | 190265 | 201350
18 | 44:44.51 | 4:56.26 | 201351 | 223576
19 | 49:41.02 | 4:27.13 | 223577 | 243614
20 | 54:08.15 | 3:12.15 | 243615 | 258029
Характеристики диапазона извлечения и сообщения об ошибках
Выбранный диапазон
Имя файла C:\Users\CEVORA\Desktop\Various - Pure Brazil - Instrumental Bossa Nova 2.wav
Пиковый уровень 99.3 %
Качество диапазона 100.0 %
CRC теста 6C9C1EFD
CRC копии 6C9C1EFD
Копирование... OK
Ошибок не произошло
Конец отчёта
cue:
 
скрытый текст
REM GENRE Jazz
REM DATE 2005
REM DISCID 290D7014
REM COMMENT "ExactAudioCopy v0.99pb5"
PERFORMER "Various"
TITLE "Pure Brazil - Instrumental Bossa Nova 2"
FILE "Various - Pure Brazil - Instrumental Bossa Nova 2.flac" WAVE
TRACK 01 AUDIO
TITLE "Meirelles e Os Copa - Samba De Verao"
PERFORMER "Meirelles e Os Copa - Samba De Verao"
FLAGS DCP
INDEX 01 00:00:00
TRACK 02 AUDIO
TITLE "Joao Donato e Seu Trio - O Morro Nao Tem Vez"
PERFORMER "Joao Donato e Seu Trio - O Morro Nao Tem Vez"
FLAGS DCP
INDEX 01 01:57:73
TRACK 03 AUDIO
TITLE "Tamba Trio - Tristeza De Nos Dois"
PERFORMER "Tamba Trio - Tristeza De Nos Dois"
FLAGS DCP
INDEX 01 05:23:36
TRACK 04 AUDIO
TITLE "Roberto Menescal e Seu Conjunto - Rio"
PERFORMER "Roberto Menescal e Seu Conjunto - Rio"
FLAGS DCP
INDEX 01 08:44:37
TRACK 05 AUDIO
TITLE "Eumir Deotato - Insensatez"
PERFORMER "Eumir Deotato - Insensatez"
FLAGS DCP
INDEX 01 10:34:69
TRACK 06 AUDIO
TITLE "Walter Wanderley - Vivo Sonhando"
PERFORMER "Walter Wanderley - Vivo Sonhando"
FLAGS DCP
INDEX 01 14:05:16
TRACK 07 AUDIO
TITLE "Tom Jobim - Preciso Aprender A Ser So"
PERFORMER "Tom Jobim - Preciso Aprender A Ser So"
FLAGS DCP
INDEX 01 16:50:57
TRACK 08 AUDIO
TITLE "Baden Powell & Jimmy Pratt - Samba De Uma Nota So"
PERFORMER "Baden Powell & Jimmy Pratt - Samba De Uma Nota So"
FLAGS DCP
INDEX 01 19:56:07
TRACK 09 AUDIO
TITLE "Dom Um - Diz Que Fui Por Ai"
PERFORMER "Dom Um - Diz Que Fui Por Ai"
FLAGS DCP
INDEX 01 21:36:27
TRACK 10 AUDIO
TITLE "Rio 65 Trio - Manha De Carnaval"
PERFORMER "Rio 65 Trio - Manha De Carnaval"
FLAGS DCP
INDEX 01 24:38:49
TRACK 11 AUDIO
TITLE "Joao Donato - So Danзo Samba"
PERFORMER "Joao Donato - So Danзo Samba"
FLAGS DCP
INDEX 01 27:50:34
TRACK 12 AUDIO
TITLE "Sergio Mendes & Bossa Rio - Nana"
PERFORMER "Sergio Mendes & Bossa Rio - Nana"
FLAGS DCP
INDEX 01 29:52:19
TRACK 13 AUDIO
TITLE "Meirelles & Os Copa - Samba Do Carioca"
PERFORMER "Meirelles & Os Copa - Samba Do Carioca"
FLAGS DCP
INDEX 01 32:13:56
TRACK 14 AUDIO
TITLE "Luiz Eca - Cheganca"
PERFORMER "Luiz Eca - Cheganca"
FLAGS DCP
INDEX 01 34:13:59
TRACK 15 AUDIO
TITLE "Roberto Menescal e Seu Conjunto - Voce E Eu"
PERFORMER "Roberto Menescal e Seu Conjunto - Voce E Eu"
FLAGS DCP
INDEX 01 37:15:09
TRACK 16 AUDIO
TITLE "Tamba Trio - Reza"
PERFORMER "Tamba Trio - Reza"
FLAGS DCP
INDEX 01 39:06:40
TRACK 17 AUDIO
TITLE "Tenorio Junior e Seu Conjunto - Consolaзao"
PERFORMER "Tenorio Junior e Seu Conjunto - Consolaзao"
FLAGS DCP
INDEX 01 42:16:65
TRACK 18 AUDIO
TITLE "Moacir Santos - Coisa n°2"
PERFORMER "Moacir Santos - Coisa n°2"
FLAGS DCP
INDEX 01 44:44:51
TRACK 19 AUDIO
TITLE "Rio 65 Trio - Tem Do"
PERFORMER "Rio 65 Trio - Tem Do"
FLAGS DCP
INDEX 01 49:41:02
TRACK 20 AUDIO
TITLE "Tom Jobim - Berimbau"
PERFORMER "Tom Jobim - Berimbau"
FLAGS DCP
INDEX 01 54:08:15
Приватный:
Нет (DHT включён)
Размер:
333.86 Мб (350,072,899 байт) » файлов: 10
Участники:
0 раздают, 0 качают (0 участников всего)
Внешние участники:
5 раздают, 1 качают (6 участников всего) [ Обновить ]
16:55
325
Нет комментариев. Ваш будет первым!