Вы используете незарегистрированную версию компонента "Вкладки"!

Поиск

(Jazz / Modern Jazz) Samuel Blaser Quartet - Pieces of Old Sky - 2009, FLAC (tracks+.cue), lossless

(Jazz / Modern Jazz) Samuel Blaser Quartet - Pieces of Old Sky - 2009, FLAC (tracks+.cue), lossless
Треклист:
Samuel Blaser Quartet - Pieces of Old Sky
Жанр: Jazz / Modern Jazz
Год выпуска диска: 2009
Производитель диска: Clean Feed Records
Аудио кодек: FLAC
Тип рипа: tracks+.cue
Битрейт аудио: lossless
Продолжительность: 00:55:57
Трэклист:
01. Pieces of Old Sky (17:04)
02. Red Hook (8:08)
03. Choral I (2:28)
04. Mystical Circle (9:48)
05. Mandala (11:05)
06. Speed Game (5:08)
07. Choral II (2:14)
 
Отчёт EAC
Exact Audio Copy V0.99 prebeta 3 from 28. July 2007
EAC extraction logfile from 7. September 2009, 14:32
Samuel Blaser Quartet / Pieces of Old Sky
Used drive : TSSTcorpCDDVDW TS-L633L Adapter: 2 ID: 0
Read mode : Secure
Utilize accurate stream : Yes
Defeat audio cache : Yes
Make use of C2 pointers : No
Read offset correction : 6
Overread into Lead-In and Lead-Out : No
Fill up missing offset samples with silence : Yes
Delete leading and trailing silent blocks : No
Null samples used in CRC calculations : Yes
Used interface : Native Win32 interface for Win NT & 2000
Gap handling : Appended to previous track
Used output format : User Defined Encoder
Selected bitrate : 128 kBit/s
Quality : High
Add ID3 tag : No
Command line compressor : C:\Program Files\Exact Audio Copy\Flac\flac.exe
Additional command line options : -V -8 -T "artist=%a" -T "title=%t" -T "album=%g" -T "date=%y" -T "tracknumber=%n" -T "genre=%m" %s
TOC of the extracted CD
Track | Start | Length | Start sector | End sector
---------------------------------------------------------
1 | 0:00.00 | 17:04.25 | 0 | 76824
2 | 17:04.25 | 8:08.29 | 76825 | 113453
3 | 25:12.54 | 2:27.72 | 113454 | 124550
4 | 27:40.51 | 9:48.31 | 124551 | 168681
5 | 37:29.07 | 11:05.24 | 168682 | 218580
6 | 48:34.31 | 5:07.56 | 218581 | 241661
7 | 53:42.12 | 2:14.31 | 241662 | 251742
Track 1
Filename C:\Users\temp\Desktop\FLAC\Samuel Blaser Quartet - 2009 - Pieces of Old Sky [FLAC]\01 - Pieces of Old Sky.wav
Pre-gap length 0:00:02.00
Peak level 97.7 %
Track quality 100.0 %
Test CRC 36E883D4
Copy CRC 36E883D4
Track not present in AccurateRip database
Copy OK
Track 2
Filename C:\Users\temp\Desktop\FLAC\Samuel Blaser Quartet - 2009 - Pieces of Old Sky [FLAC]\02 - Red Hook.wav
Pre-gap length 0:00:02.00
Peak level 98.5 %
Track quality 100.0 %
Test CRC C9AE4C31
Copy CRC C9AE4C31
Track not present in AccurateRip database
Copy OK
Track 3
Filename C:\Users\temp\Desktop\FLAC\Samuel Blaser Quartet - 2009 - Pieces of Old Sky [FLAC]\03 - Choral I.wav
Pre-gap length 0:00:02.00
Peak level 91.8 %
Track quality 100.0 %
Test CRC 7E1B5780
Copy CRC 7E1B5780
Track not present in AccurateRip database
Copy OK
Track 4
Filename C:\Users\temp\Desktop\FLAC\Samuel Blaser Quartet - 2009 - Pieces of Old Sky [FLAC]\04 - Mystical Circle.wav
Pre-gap length 0:00:02.00
Peak level 98.5 %
Track quality 99.9 %
Test CRC 975D5E00
Copy CRC 975D5E00
Track not present in AccurateRip database
Copy OK
Track 5
Filename C:\Users\temp\Desktop\FLAC\Samuel Blaser Quartet - 2009 - Pieces of Old Sky [FLAC]\05 - Mandala.wav
Pre-gap length 0:00:02.00
Peak level 98.5 %
Track quality 100.0 %
Test CRC F2BD57BE
Copy CRC F2BD57BE
Track not present in AccurateRip database
Copy OK
Track 6
Filename C:\Users\temp\Desktop\FLAC\Samuel Blaser Quartet - 2009 - Pieces of Old Sky [FLAC]\06 - Speed Game.wav
Pre-gap length 0:00:02.00
Peak level 98.5 %
Track quality 100.0 %
Test CRC B4DC4801
Copy CRC B4DC4801
Track not present in AccurateRip database
Copy OK
Track 7
Filename C:\Users\temp\Desktop\FLAC\Samuel Blaser Quartet - 2009 - Pieces of Old Sky [FLAC]\07 - Choral II.wav
Pre-gap length 0:00:02.00
Peak level 97.7 %
Track quality 100.0 %
Test CRC 347B1C30
Copy CRC 347B1C30
Track not present in AccurateRip database
Copy OK
None of the tracks are present in the AccurateRip database
No errors occurred
End of status report
Personnel:
Samuel Blaser (trombone)
Todd Neuyfeld (guitar)
Thomas Morgan (bass)
Tyshawn Sorey (drums)
 
Официальный сайт
По всем вопросам пишите личное сообщение пользователю M0p94ok.
14:36
168
Нет комментариев. Ваш будет первым!