Вы используете незарегистрированную версию компонента "Вкладки"!

Поиск

(Avant-Garde/Free Jazz) Cecil Taylor - Air - 1960, APE (image+.cue), lossless

(Avant-Garde/Free Jazz) Cecil Taylor - Air - 1960, APE (image+.cue), lossless
Треклист:
Cecil Taylor - Air
Жанр: Avant-Garde/Free Jazz
Год выпуска диска: 1960
Аудио кодек: APE
Тип рипа: image+.cue
Битрейт аудио: lossless
Продолжительность: 63:60
Лейбл: Candid
Источник: NoNaMe
Трэклист:
1. Number One (take 1)
2. Number One (take 2)
3. Air (take 9)
4. Air (take 21)
5. Air (take 24)
6. Port of Call (take 3)
Музыканты:
Cecil Taylor — piano
Archie Shepp — tenor sax
Buell Neidlinger — bass
Sunny Murray(1,2), Denis Charles(3-6) — drums
 
Отчёт EAC
Exact Audio Copy V0.99 prebeta 4 from 23. January 2008
EAC extraction logfile from 2. September 2009, 21:18
Cecil Taylor / Air
Used drive : HL-DT-STRW/DVD GCC-4242N Adapter: 1 ID: 0
Read mode : Secure
Utilize accurate stream : Yes
Defeat audio cache : Yes
Make use of C2 pointers : No
Read offset correction : 102
Overread into Lead-In and Lead-Out : No
Fill up missing offset samples with silence : Yes
Delete leading and trailing silent blocks : No
Null samples used in CRC calculations : Yes
Used interface : Native Win32 interface for Win NT & 2000
Used output format : Internal WAV Routines
Sample format : 44.100 Hz; 16 Bit; Stereo
TOC of the extracted CD
Track | Start | Length | Start sector | End sector
---------------------------------------------------------
1 | 0:00.00 | 12:35.20 | 0 | 56644
2 | 12:35.20 | 8:36.15 | 56645 | 95359
3 | 21:11.35 | 17:34.40 | 95360 | 174449
4 | 38:46.00 | 11:24.52 | 174450 | 225801
5 | 50:10.52 | 10:21.05 | 225802 | 272381
6 | 60:31.57 | 4:25.30 | 272382 | 292286
Range status and errors
Selected range
Filename C:\_\EAC_Out\Out\Cecil Taylor - Air\Cecil Taylor - Air.wav
Peak level 90.1 %
Range quality 100.0 %
Copy CRC 86D1677E
Copy OK
No errors occurred
AccurateRip summary
Track 1 cannot be verified as accurate (confidence 1) [7F451E6F], AccurateRip returned [E185CE1B]
Track 2 cannot be verified as accurate (confidence 1) [3F0534EC], AccurateRip returned [AB9C3201]
Track 3 cannot be verified as accurate (confidence 1) [60A4D798], AccurateRip returned [EB6B2A65]
Track 4 cannot be verified as accurate (confidence 1) [CEE60F90], AccurateRip returned [0B8BCDA2]
Track 5 cannot be verified as accurate (confidence 1) [106642E5], AccurateRip returned [35C956F9]
Track 6 cannot be verified as accurate (confidence 1) [6D90EA64], AccurateRip returned [B2EF6568]
No tracks could be verified as accurate
You may have a different pressing from the one(s) in the database
End of status report
 
Audiochecker
AUDIOCHECKER v1.2 - by Dester - opdester@freemail.hu
~~~~~~~~~~~~~~~~~
1 -===- E:\Up-Down\Cecil Taylor - Air\Cecil Taylor - Air.ape
Extracted successfully
Conclusion: This track looks like CDDA with probability 100%
Any questions -> support@pro-jazz.com. По всем вопросам пишите -> support@pro-jazz.com
14:35
170
Нет комментариев. Ваш будет первым!