Вы используете незарегистрированную версию компонента "Вкладки"!

Поиск

(Avant-garde, free jazz) The Naked Future - Gigantomachia - 2009, FLAC (image+.cue), lossless

(Avant-garde, free jazz) The Naked Future - Gigantomachia - 2009, FLAC (image+.cue), lossless
Треклист:
The Naked Future - Gigantomachia
Жанр: Avant-garde, free jazz
Год выпуска диска: 2009
Производитель диска: USA (ESP-DISK)
Аудио кодек: FLAC
Тип рипа: image+.cue
Битрейт аудио: lossless
Продолжительность: 47:07
Трэклист:
01. We Binge on a Bloodthirsty God 19:16
02. We Boil the Raven's Skull Into Gold 09:55
03. We Engage the Monstrous With Our Mirrors 09:43
04. We Fly Beneath and Above the Flux 06:06
05. We Sleep in a Rabbit Hole 02:05
Personnel:
Arrington de Dionyso: bass clarinet, contralto clarinet
Thollem McDonas: piano
John Niekrasz: drums
Greg Skloff: bass
От релизера:
Аннотаций и отзывов на русском в сети не нашел. Проект совершенно новый, хотя персонажи имеют свою историю.
Поэтому излагаю свои имхо ощущения.
Это авангард. Реальный. Однако, чувствуется структура, что-ли. То есть происходит масса событий, но все события - музыкальные, без синтетических шумов.
И желающий услышит, что все эти события не хаотичны а определенным образом расположены... В принципе - ритмичны.
Любителей поковыряться в звуках и ощущениях уверяю - скучно не будет.
Кстати, на Пур Легионе их заявляют в разделе "джаз". Ну тогда очень фри-джаз.
 
Отчет ЕАС
Exact Audio Copy V0.99 prebeta 4 from 23. January 2008
Отчёт EAC об извлечении, выполненном 9. сентября 2009, 20:44
The Naked Future / Gigantomachia
Дисковод: YAMAHA CRW-F1E Adapter: 7 ID: 0
Режим чтения : Достоверность
Использование точного потока : Да
Отключение кэша аудио : Да
Использование указателей C2 : Нет
Коррекция смещения при чтении : 733
Способность читать области Lead-in и Lead-out : Нет
Заполнение пропущенных сэмплов тишиной : Да
Удаление блоков с тишиной в начале и конце : Нет
При вычислениях CRC использовались нулевые сэмплы : Да
Интерфейс : Установленный внешний ASPI-интерфейс
Выходной формат : Пользовательский кодировщик
Выбранный битрейт : 256 kBit/s
Качество : Высокий
Добавление ID3-тэга : Нет
Утилита сжатия : C:\Program Files\flac-1.1.1-win\bin\flac.exe
Дополнительные параметры : -8 -V -T "ARTIST=%a" -T "TITLE=%t" -T "ALBUM=%g" -T "DATE=%y" -T "TRACKNUMBER=%n" -T "GENRE=%m" -T "COMMENT=EAC FLAC -8" %s
TOC извлечённого CD
Трек | Старт | Длительность | Начальный сектор | Конечный сектор
---------------------------------------------------------------------
1 | 0:00.00 | 19:16.40 | 0 | 86739
2 | 19:16.40 | 9:55.12 | 86740 | 131376
3 | 29:11.52 | 9:43.28 | 131377 | 175129
4 | 38:55.05 | 6:06.52 | 175130 | 202631
5 | 45:01.57 | 2:05.51 | 202632 | 212057
Характеристики диапазона извлечения и сообщения об ошибках
Выбранный диапазон
Имя файла I:\TorrentsUpload\The Naked Future - Gigantomachia - 2009\The Naked Future - Gigantomachia - 2009.wav
Пиковый уровень 81.9 %
Качество диапазона 100.0 %
CRC теста F5A81BAD
CRC копии F5A81BAD
Копирование... OK
Ошибок не произошло
AccurateRip: сводка
Трек 1 нет в базе данных
Трек 2 нет в базе данных
Трек 3 нет в базе данных
Трек 4 нет в базе данных
Трек 5 нет в базе данных
Ни одного трека нет в базе AccurateRip
Конец отчёта
По всем вопросам пишите личное сообщение пользователю M0p94ok.
14:37
157
Нет комментариев. Ваш будет первым!