Поиск

(Jazz, Modern Creative, Fun) Sex Mob - Solid Sender - 1999, FLAC (tracks+.cue), lossless

Треклист:
Sex Mob - Solid Sender

Жанр: Jazz, Modern Creative, Fun
Год выпуска диска: 1999
Производитель диска: USA
Лейбл: Knitting Factory Works
Аудио кодек: FLAC
Тип рипа: tracks+.cue
Битрейт аудио: lossless
Продолжительность: 63 min
Трэклист:
Solid Sender
1 Solid Sender into a world of dreams
2 About a Girl Grunge Kansas City style (Nirvana)
3 Fernando Hallucinations on 3 minutes of melody. The Art Ensemble of Chicago meets Phil Spector (ABBA)
4 Human Bidet, Pt. 1
5 The Mooche In Storyville on mescaline (Duke Ellington)
6 Rear View the title says it all
7 Human Bidet, Pt. 2
8 Crazy Beat/Don't Be Cruel We killed Elvis
9 Ripple Jerry (Grateful Dead)
10 The Grind Around the world in Detroit
11 Human Bidet, Pt. 3
12 For What It's Worth A sonic love meditation (Buffalo Springfield)
13 Human Bidet, Pt. 4
14 Ruby Tuesday holiday for skins (Rolling Stones)
15 Please, Please, Please Ultra Ultra Traditionalists (James Brown)
16 Human Bidet, Pt. 5
17 Not Boweevil Cha Cha Cha
18 Human Bidet, Pt. 6
19 Billy Preston Set Him Free
Доп. информация: Рип сделан с оригинального CD Knitting Factory KFW-244
Музыканты:
Steven Bernstein - slide trumpet, mellophone
Briggan Krauss - alto saxophone, baritone saxophone
Tony Scherr - acoustic bass, acoustic guitar
Kenny Wollesen - drums, tambourines, maracas, beer bottle (!!!), parade drum
Специально приглашенные гости:
DJ Logic - turntables (1, 14)
Charlie Burnham - violin (2, 3, 5 (solo), 10, 19)
Joan Wasser - violin (2 (solo), 3, 5, 10, 15, 19)
Jane Scarpantoni - cello (9, 12 (solo), 15)
Julia Kent - cello (9, 12, 15)
Michelle Kinney - cello (15 -solo la mart douce-)
А также:
The Sex Mob Children's Choir (Rex and Olive Bernstein, Max and Emily Cea, Arabella and Pearl Zarember) - (17)
Вообщем, коллектив Бернштейна здесь натворил делОв... Обыграл многих - от Nirvana до ABBA и, при этом, умудрился внести в уже знакомые композиции столько юмора, что дальше некуда... Шикарный альбом отличных музыкантов... Удовольствие от прослушивания гарантировано...
 
EAC Log
Exact Audio Copy V0.99 prebeta 4 from 23. January 2008
EAC extraction logfile from 16. October 2008, 19:48
Sex Mob / Solid Sender
Used drive : TSSTcorpCD/DVDW SH-W162C Adapter: 0 ID: 0
Read mode : Secure
Utilize accurate stream : Yes
Defeat audio cache : Yes
Make use of C2 pointers : No
Read offset correction : 48
Overread into Lead-In and Lead-Out : No
Fill up missing offset samples with silence : Yes
Delete leading and trailing silent blocks : No
Null samples used in CRC calculations : Yes
Used interface : Installed external ASPI interface
Gap handling : Appended to previous track
Used output format : User Defined Encoder
Selected bitrate : 768 kBit/s
Quality : High
Add ID3 tag : No
Command line compressor : C:\Program Files\Exact Audio Copy\FLAC\FLAC.EXE
Additional command line options : -6 -V -T "ARTIST=%a" -T "TITLE=%t" -T "ALBUM=%g" -T "DATE=%y" -T "TRACKNUMBER=%n" -T "GENRE=%m" -T "COMMENT=%e" %s -o %d
Use compression offset : 0
TOC of the extracted CD
Track | Start | Length | Start sector | End sector
---------------------------------------------------------
1 | 0:00.00 | 4:56.37 | 0 | 22236
2 | 4:56.37 | 4:08.13 | 22237 | 40849
3 | 9:04.50 | 7:01.20 | 40850 | 72444
4 | 16:05.70 | 0:20.12 | 72445 | 73956
5 | 16:26.07 | 4:37.40 | 73957 | 94771
6 | 21:03.47 | 3:11.43 | 94772 | 109139
7 | 24:15.15 | 0:16.67 | 109140 | 110406
8 | 24:32.07 | 3:04.68 | 110407 | 124274
9 | 27:37.00 | 2:56.50 | 124275 | 137524
10 | 30:33.50 | 5:17.32 | 137525 | 161331
11 | 35:51.07 | 0:23.18 | 161332 | 163074
12 | 36:14.25 | 8:25.00 | 163075 | 200949
13 | 44:39.25 | 0:34.20 | 200950 | 203519
14 | 45:13.45 | 4:16.62 | 203520 | 222781
15 | 49:30.32 | 4:14.03 | 222782 | 241834
16 | 53:44.35 | 0:33.30 | 241835 | 244339
17 | 54:17.65 | 4:13.57 | 244340 | 263371
18 | 58:31.47 | 0:19.70 | 263372 | 264866
19 | 58:51.42 | 4:06.21 | 264867 | 283337
Track 1
Filename C:\Sex Mob\1999, Solid Sender\01 - Solid Sender.wav
Pre-gap length 0:00:02.00
Peak level 98.8 %
Track quality 100.0 %
Test CRC 43ACA14B
Copy CRC 43ACA14B
Copy OK
Track 2
Filename C:\Sex Mob\1999, Solid Sender\02 - About a Girl.wav
Peak level 98.8 %
Track quality 100.0 %
Test CRC 362AC769
Copy CRC 362AC769
Copy OK
Track 3
Filename C:\Sex Mob\1999, Solid Sender\03 - Fernando.wav
Peak level 98.8 %
Track quality 100.0 %
Test CRC B244BAE1
Copy CRC B244BAE1
Copy OK
Track 4
Filename C:\Sex Mob\1999, Solid Sender\04 - Human Bidet Part 1.wav
Peak level 98.8 %
Track quality 100.0 %
Test CRC 1D8DCD29
Copy CRC 1D8DCD29
Copy OK
Track 5
Filename C:\Sex Mob\1999, Solid Sender\05 - The Mooch.wav
Peak level 98.8 %
Track quality 100.0 %
Test CRC 39D15A4D
Copy CRC 39D15A4D
Copy OK
Track 6
Filename C:\Sex Mob\1999, Solid Sender\06 - Rear View.wav
Peak level 98.8 %
Track quality 99.9 %
Test CRC 2494F6B6
Copy CRC 2494F6B6
Copy OK
Track 7
Filename C:\Sex Mob\1999, Solid Sender\07 - Human Bidet Part 2.wav
Peak level 98.8 %
Track quality 100.0 %
Test CRC C30D7DF0
Copy CRC C30D7DF0
Copy OK
Track 8
Filename C:\Sex Mob\1999, Solid Sender\08 - Crazy Beat,Don't Be Cruel.wav
Peak level 98.8 %
Track quality 100.0 %
Test CRC C039176C
Copy CRC C039176C
Copy OK
Track 9
Filename C:\Sex Mob\1999, Solid Sender\09 - Ripple.wav
Pre-gap length 0:00:02.43
Peak level 98.8 %
Track quality 99.9 %
Test CRC D73D30A4
Copy CRC D73D30A4
Copy OK
Track 10
Filename C:\Sex Mob\1999, Solid Sender\10 - The Grind.wav
Pre-gap length 0:00:00.31
Peak level 98.8 %
Track quality 99.9 %
Test CRC 97B907BF
Copy CRC 97B907BF
Copy OK
Track 11
Filename C:\Sex Mob\1999, Solid Sender\11 - Human Bidet Part 3.wav
Pre-gap length 0:00:00.49
Peak level 98.8 %
Track quality 99.5 %
Test CRC 2BFD7924
Copy CRC 2BFD7924
Copy OK
Track 12
Filename C:\Sex Mob\1999, Solid Sender\12 - For What It's Worth.wav
Pre-gap length 0:00:00.41
Peak level 98.8 %
Track quality 100.0 %
Test CRC F9B06007
Copy CRC F9B06007
Copy OK
Track 13
Filename C:\Sex Mob\1999, Solid Sender\13 - Human Bidet Part 4.wav
Peak level 98.8 %
Track quality 100.0 %
Test CRC 970A73F9
Copy CRC 970A73F9
Copy OK
Track 14
Filename C:\Sex Mob\1999, Solid Sender\14 - Ruby Tuesday.wav
Peak level 98.8 %
Track quality 100.0 %
Test CRC A0FA21E1
Copy CRC A0FA21E1
Copy OK
Track 15
Filename C:\Sex Mob\1999, Solid Sender\15 - Please, Please, Please.wav
Pre-gap length 0:00:01.22
Peak level 98.8 %
Track quality 99.9 %
Test CRC 7F48191A
Copy CRC 7F48191A
Copy OK
Track 16
Filename C:\Sex Mob\1999, Solid Sender\16 - Human Bidet Part 5.wav
Pre-gap length 0:00:00.71
Peak level 98.8 %
Track quality 100.0 %
Test CRC 1A7794D5
Copy CRC 1A7794D5
Copy OK
Track 17
Filename C:\Sex Mob\1999, Solid Sender\17 - Not Boweevil.wav
Pre-gap length 0:00:00.36
Peak level 98.8 %
Track quality 100.0 %
Test CRC 0A129F63
Copy CRC 0A129F63
Copy OK
Track 18
Filename C:\Sex Mob\1999, Solid Sender\18 - Human Bidet Part 6.wav
Peak level 98.8 %
Track quality 99.4 %
Test CRC 9C722606
Copy CRC 9C722606
Copy OK
Track 19
Filename C:\Sex Mob\1999, Solid Sender\19 - Billy Preston.wav
Peak level 98.8 %
Track quality 100.0 %
Test CRC BDFD30B2
Copy CRC BDFD30B2
Copy OK
No errors occurred
End of status report
Милости прошу в мои раздачи
Приватный:
Нет (DHT включён)
Размер:
384.33 Мб (403,002,338 байт) » файлов: 22
Участники:
0 раздают, 0 качают (0 участников всего)
Внешние участники:
1 раздают, 0 качают (1 участников всего) [ Обновить ]
No seeders - write a personal message to user M0p94ok. Нет сидеров - пишите личное сообщение пользователю M0p94ok.
04:08
58
Нет комментариев. Ваш будет первым!