Поиск

(Avant-Garde) Hamid Drake, Albert Beger, William Parker - Evolving Silence Vol. 1 - 2005, APE (image+.cue)

(Avant-Garde) Hamid Drake, Albert Beger, William Parker - Evolving Silence Vol. 1 - 2005, APE (image+.cue)
Треклист:
Hamid Drake, Albert Beger, William Parker - Evolving Silence Vol. 1
Жанр: Avant-Garde
Год выпуска диска: 2005
Производитель диска: Israel "Earsayrecords"
Аудио кодек: APE
Тип рипа: image+.cue
Трэклист:
1. Naked Truth 11:45
2. Duo #1 6:44
3. Duo #2 11.03
4. Rain Is Coming 12:36
Total:42:11
Доп. информация:
 
Отчёт EAC
Exact Audio Copy V0.99 prebeta 4 from 23. January 2008
EAC extraction logfile from 16. October 2008, 14:59
Hamid Drake, Albert Beger, William Parker / Evolving Silence Vol. 1
Used drive : _NEC CD-RW NR-9500B Adapter: 3 ID: 0
Read mode : Secure
Utilize accurate stream : Yes
Defeat audio cache : No
Make use of C2 pointers : No
Read offset correction : 145
Overread into Lead-In and Lead-Out : No
Fill up missing offset samples with silence : Yes
Delete leading and trailing silent blocks : No
Null samples used in CRC calculations : No
Used interface : Native Win32 interface for Win NT & 2000
Used output format : Internal WAV Routines
Sample format : 44.100 Hz; 16 Bit; Stereo
TOC of the extracted CD
Track | Start | Length | Start sector | End sector
---------------------------------------------------------
1 | 0:00.00 | 11:44.73 | 0 | 52872
2 | 11:44.73 | 6:44.44 | 52873 | 83216
3 | 18:29.42 | 11:03.21 | 83217 | 132962
4 | 29:32.63 | 12:36.15 | 132963 | 189677
Range status and errors
Selected range
Filename C:\Temp\Hamid Drake, Albert Beger, William Parker - Evolving Silence Vol. 1.wav
Peak level 100.0 %
Range quality 100.0 %
Copy CRC AF049D2B
Copy OK
No errors occurred
AccurateRip summary
Track 1 not present in database
Track 2 not present in database
Track 3 not present in database
Track 4 not present in database
None of the tracks are present in the AccurateRip database
End of status report
ape+cue+scan
Итак невзирая на отсутствие ерекции тфу реакции на
"Joelle Léandre & William Parker - Contrabasses" -продолжаем
загрузил APE
Приватный:
Нет (DHT включён)
Размер:
263.96 Мб (276,777,709 байт) » файлов: 6
Участники:
0 раздают, 0 качают (0 участников всего)
Внешние участники:
1 раздают, 0 качают (1 участников всего) [ Обновить ]
No seeders - write a personal message to user M0p94ok. Нет сидеров - пишите личное сообщение пользователю M0p94ok.
04:09
51
Нет комментариев. Ваш будет первым!