Поиск

(Jazz Avant-Garde) Joelle Léandre & William Parker - Contrabasses - 1998, APE (image+.cue)

(Jazz Avant-Garde) Joelle Léandre & William Parker - Contrabasses - 1998, APE (image+.cue)
Треклист:
Joelle Léandre & William Parker - Contrabasses
Жанр: Jazz Avant-Garde
Год выпуска диска: 1998
Производитель диска: Leo Records
Аудио кодек: APE
Тип рипа: image+.cue
Продолжительность: 55:47
Трэклист:
1.: Duet One
2.: Duet Two
3.: WP Solo
4.: Duet Three
5.: JL Solo
6.: Duet Four
Доп. информация:
 
Отчёт EAC
Exact Audio Copy V0.99 prebeta 4 from 23. January 2008
EAC extraction logfile from 15. October 2008, 12:44
Joelle Léandre & William Parker / Contrabasses
Used drive : _NEC CD-RW NR-9500B Adapter: 3 ID: 0
Read mode : Secure
Utilize accurate stream : Yes
Defeat audio cache : No
Make use of C2 pointers : No
Read offset correction : 145
Overread into Lead-In and Lead-Out : No
Fill up missing offset samples with silence : Yes
Delete leading and trailing silent blocks : No
Null samples used in CRC calculations : No
Used interface : Native Win32 interface for Win NT & 2000
Used output format : Internal WAV Routines
Sample format : 44.100 Hz; 16 Bit; Stereo
TOC of the extracted CD
Track | Start | Length | Start sector | End sector
---------------------------------------------------------
1 | 0:00.00 | 10:38.17 | 0 | 47866
2 | 10:38.17 | 10:40.60 | 47867 | 95926
3 | 21:19.02 | 10:09.50 | 95927 | 141651
4 | 31:28.52 | 8:58.33 | 141652 | 182034
5 | 40:27.10 | 6:00.65 | 182035 | 209099
6 | 46:28.00 | 7:52.15 | 209100 | 244514
Range status and errors
Selected range
Filename C:\Temp\Joelle Léandre & William Parker - Contrabasses.wav
Peak level 100.0 %
Range quality 99.9 %
Copy CRC 567E2215
Copy OK
No errors occurred
AccurateRip summary
Track 1 not present in database
Track 2 not present in database
Track 3 not present in database
Track 4 not present in database
Track 5 not present in database
Track 6 not present in database
None of the tracks are present in the AccurateRip database
End of status report
ape+.cue+cover
Приватный:
Нет (DHT включён)
Размер:
244.99 Мб (256,892,079 байт) » файлов: 7
Участники:
0 раздают, 0 качают (0 участников всего)
Внешние участники:
1 раздают, 0 качают (1 участников всего) [ Обновить ]
No seeders - write a personal message to user M0p94ok. Нет сидеров - пишите личное сообщение пользователю M0p94ok.
04:08
55
Нет комментариев. Ваш будет первым!