Поиск

(Jazz, Latin, Pop) Francis Goya & Carmina - Festival Latino - 2004, APE (image+.cue), lossless

(Jazz, Latin, Pop) Francis Goya & Carmina - Festival Latino - 2004, APE (image+.cue), lossless
Треклист:
francis GOYA & CARMINA cabreraF e s t i v a l L a t i n o Жанр: Jazz, Latin, Pop
Год выпуска диска: 2004
Производитель диска: E.E.C.
Аудио кодек: APE
Тип рипа: image+.cue
Битрейт аудио: lossless
Продолжительность: 52:55
Трэклист:
01. Mucho trabajo 3:38
02. Maria das mercedes 3:02
03. Yo te amo (And I love Her) 3:54
04. Razon de vivir 4:22
05. A felicidade 4:01
06. Falsa baiana 3:58
07. Caramba 3:40
08. Sambandova 3:48
09. Miranda de Copacabana 4:04
10. Deja recordar 3:46
11. Tuda bem 4:02
12. Samba de volta 3:26
13. Contigo aprendi 3:48
14. Lignt my fire 3:17
 
Log EAC
Goya & Carmina / Festival Latino
Used drive : TEAC CD-W540E Adapter: 1 ID: 0
Read mode : Secure
Utilize accurate stream : Yes
Defeat audio cache : Yes
Make use of C2 pointers : No
Read offset correction : 686
Overread into Lead-In and Lead-Out : No
Fill up missing offset samples with silence : Yes
Delete leading and trailing silent blocks : No
Null samples used in CRC calculations : Yes
Used interface : Installed external ASPI interface
Used output format : Internal WAV Routines
Sample format : 44.100 Hz; 16 Bit; Stereo
TOC of the extracted CD
Track | Start | Length | Start sector | End sector
---------------------------------------------------------
1 | 0:00.00 | 3:38.65 | 0 | 16414
2 | 3:38.65 | 3:02.07 | 16415 | 30071
3 | 6:40.72 | 3:54.73 | 30072 | 47694
4 | 10:35.70 | 4:22.12 | 47695 | 67356
5 | 14:58.07 | 4:01.30 | 67357 | 85461
6 | 18:59.37 | 3:58.10 | 85462 | 103321
7 | 22:57.47 | 3:40.38 | 103322 | 119859
8 | 26:38.10 | 3:48.52 | 119860 | 137011
9 | 30:26.62 | 4:04.23 | 137012 | 155334
10 | 34:31.10 | 3:46.65 | 155335 | 172349
11 | 38:18.00 | 4:02.07 | 172350 | 190506
12 | 42:20.07 | 3:26.30 | 190507 | 205986
13 | 45:46.37 | 3:48.40 | 205987 | 223126
14 | 49:35.02 | 3:18.20 | 223127 | 237996
Range status and errors
Selected range
Filename D:\RIP\Goya & Carmina - Festival Latino.wav
Peak level 89.1 %
Range quality 100.0 %
Copy CRC 426B2E35
Copy OK
No errors occurred
AccurateRip summary
Track 1 not present in database
Track 2 not present in database
Track 3 not present in database
Track 4 not present in database
Track 5 not present in database
Track 6 not present in database
Track 7 not present in database
Track 8 not present in database
Track 9 not present in database
Track 10 not present in database
Track 11 not present in database
Track 12 not present in database
Track 13 not present in database
Track 14 not present in database
None of the tracks are present in the AccurateRip database
End of status report
 
Tau


Доп. информация: Рип мой. Оригинальный год релиза - 1994. Это - один из 3-х дисков,
записанных известнейшим бельгийским гитаристом Франсисом Гоя и боливийской певицей Карминой Кабрера
 
Задняя обложка
Download available for power users only.
08:27
248
Нет комментариев. Ваш будет первым!