Поиск

(Bossa Nova / Brazilian Jazz) VA — An Antonio Carlos Jobim Songbook - 1997, FLAC (image+.cue), lossless

(Bossa Nova / Brazilian Jazz) VA — An Antonio Carlos Jobim Songbook - 1997, FLAC (image+.cue), lossless
Треклист:
Various Artists — An Antonio Carlos Jobim Songbook
Жанр: Bossa Nova / Brazilian Jazz
Год выпуска диска: 1997
Производитель диска: Lable: Concord Special Products, product; St-Clair Entertainment Group Inc. Canada JAZ45212
Аудио кодек: FLAC
Тип рипа: image+.cue
Битрейт аудио: lossless
Продолжительность: 00:51:03
Трэклист:
1. Meditation --- Rosemary Clooney
2. Medley: Corcovado (Quiet Nights)/The Girl from Ipanema/Desafinado --- Laurindo Almeida
3. One Note Samba --- Karrin Allyson
4. How Sensitive --- The Scott Hamilton Quintet
5. Zingaro --- Ali Ryerson
6. Triste --- Tania Maria
7. Favela --- Great Guitars (Charlie Byrd, Herb Ellis & Barney Kessel)
8. Passarim --- Manfredo Fest
9. Águas de Março (Waters of March) --- JoAnne Brackeen
10. Amparo --- Carlos Barbosa-Lima
 
EAC Report
EAC Report:
Exact Audio Copy V0.99 prebeta 4 from 23. January 2008
Отчёт EAC об извлечении, выполненном 17. октября 2009, 16:11
Various Artists / An Antonio Carlos Jobim Songbook
Дисковод: HL-DT-STDVDRAM GH20NS10 Adapter: 2 ID: 0
Режим чтения : Достоверность
Использование точного потока : Да
Отключение кэша аудио : Да
Использование указателей C2 : Нет
Коррекция смещения при чтении : 667
Способность читать области Lead-in и Lead-out : Нет
Заполнение пропущенных сэмплов тишиной : Да
Удаление блоков с тишиной в начале и конце : Нет
При вычислениях CRC использовались нулевые сэмплы : Да
Интерфейс : Встроенный Win32-интерфейс для Win NT/2000
Выходной формат : Пользовательский кодировщик
Выбранный битрейт : 1024 kBit/s
Качество : Высокий
Добавление ID3-тэга : Нет
Утилита сжатия : C:\Program Files\Exact Audio Copy\FLAC\FLAC.EXE
Дополнительные параметры : -6 -V -T "ARTIST=%a" -T "TITLE=%t" -T "ALBUM=%g" -T "DATE=%y" -T "TRACKNUMBER=%n" -T "GENRE=%m" -T "COMMENT=%e" %s -o %d
TOC извлечённого CD
Трек | Старт | Длительность | Начальный сектор | Конечный сектор
---------------------------------------------------------------------
1 | 0:00.00 | 4:47.30 | 0 | 21554
2 | 4:47.30 | 4:42.00 | 21555 | 42704
3 | 9:29.30 | 3:41.32 | 42705 | 59311
4 | 13:10.62 | 6:58.00 | 59312 | 90661
5 | 20:08.62 | 6:59.63 | 90662 | 122149
6 | 27:08.50 | 3:40.12 | 122150 | 138661
7 | 30:48.62 | 4:38.13 | 138662 | 159524
8 | 35:27.00 | 6:59.62 | 159525 | 191011
9 | 42:26.62 | 6:16.55 | 191012 | 219266
10 | 48:43.42 | 3:39.18 | 219267 | 235709
Характеристики диапазона извлечения и сообщения об ошибках
Выбранный диапазон
Имя файла D:\test\Jobim\Various Artists - An Antonio Carlos Jobim Songbook.wav
Пиковый уровень 97.1 %
Качество диапазона 100.0 %
CRC теста 580569E1
CRC копии 580569E1
Копирование... OK
Ошибок не произошло
AccurateRip: сводка
Трек 1 точность не определена (достоверность 1) [A843A553], AccurateRip вернул [F83F7946]
Трек 2 точность не определена (достоверность 1) [E03E06F3], AccurateRip вернул [818D5878]
Трек 3 точность не определена (достоверность 1) [534D05C3], AccurateRip вернул [8651E496]
Трек 4 точность не определена (достоверность 1) [720A3CD5], AccurateRip вернул [47A20CC7]
Трек 5 точность не определена (достоверность 1) [1FCBCD60], AccurateRip вернул [8BBE29CF]
Трек 6 точность не определена (достоверность 1) [4783B42C], AccurateRip вернул [713C315A]
Трек 7 точность не определена (достоверность 1) [BA8F6D24], AccurateRip вернул [058DF3C3]
Трек 8 точность не определена (достоверность 1) [24A51A55], AccurateRip вернул [4D982336]
Трек 9 точность не определена (достоверность 1) [3816E8DA], AccurateRip вернул [5A3B62FD]
Трек 10 точность не определена (достоверность 1) [2742DE49], AccurateRip вернул [FC401FD6]
Ни один трек не прошёл проверки на точность
В вашей базе может быть иной вариант штамповки диска
Конец отчёта
Download available for power users only.
08:28
316
Нет комментариев. Ваш будет первым!