Поиск

(Bossa Nova/Latin Jazz) Joao Bosco - Ai Ai Ai De Mim - 1986, FLAC (image+.cue), lossless

(Bossa Nova/Latin Jazz) Joao Bosco - Ai Ai Ai De Mim - 1986, FLAC (image+.cue), lossless
Треклист:
João Bosco - Ai Ai Ai De Mim
Жанр: Bossa Nova/Latin Jazz
Год выпуска диска: 1986
Производитель диска: Columbia Records (Sony Music Entretainment Brasil) - 850.009 - Brazil
Аудио кодек: FLAC
Тип рипа: image+.cue
Битрейт аудио: lossless
Продолжительность: 46:47
Трэклист:
1 - Si Si, No No
2 - Desenho De Giz
3 - As Minas Do Mar
4 - Quando O Amor Acontece
5 - Molambo: Farrapo De Gente Também Ama
6 - Bolerando Com Ravel (Bolero)
7 - Pirata Azul
8 - Eu E Minha Guitarra
9 - Angra
10 - Das Dores De Oratórios
 
Info
Together with Gagabirô (1985), Cabeça de Nego (1986), and Bosco (1989), Ai Ai Ai de Mim was an important album in the career of João Bosco, confirming to the critics that he was a creative composer and interpreter, fusing samba with other diverse influences. In the case in point, the influences range from the pop of "Si Si, No No" and the Arab singing in the Latin swing of "As Minas do Mar," to the African drumming in "Molambo: Farrapo de Gente Também Ama" and Ravel's "Bolero" in "Bolerando Com Ravel," to the Caribbean rhythms in "Pirata Azul" to the Iberian accent of "Das Dores de Oratórios." The romantic "Quando o Amor Acontece" was the hit of the album, which left aside the distinctive Bosco style of the furiously swinging samba to embrace a sophisticated universalizing conception.
 
EAC Log
Exact Audio Copy V0.99 prebeta 5 from 4. May 2009
EAC extraction logfile from 10. October 2009, 20:29
João Bosco / Ai Ai Ai De Mim
Used drive : HL-DT-STDVDRAM GH20NS15 Adapter: 0 ID: 0
Read mode : Secure
Utilize accurate stream : Yes
Defeat audio cache : Yes
Make use of C2 pointers : No
Read offset correction : 667
Overread into Lead-In and Lead-Out : No
Fill up missing offset samples with silence : Yes
Delete leading and trailing silent blocks : No
Null samples used in CRC calculations : Yes
Used interface : Installed external ASPI interface
Used output format : User Defined Encoder
Selected bitrate : 1024 kBit/s
Quality : High
Add ID3 tag : No
Command line compressor : C:\Program Files\Exact Audio Copy\Flac\flac.exe
Additional command line options : -8 -A tukey(0.25) -A gauss(0.1875) -b 4096 -V -T "artist=%a" -T "title=%t" -T "album=%g" -T "date=%y" -T "tracknumber=%n" -T "genre=%m" %s --sector-align
TOC of the extracted CD
Track | Start | Length | Start sector | End sector
---------------------------------------------------------
1 | 0:00.00 | 5:48.42 | 0 | 26141
2 | 5:48.42 | 3:08.70 | 26142 | 40311
3 | 8:57.37 | 4:07.38 | 40312 | 58874
4 | 13:05.00 | 4:55.05 | 58875 | 81004
5 | 18:00.05 | 4:33.70 | 81005 | 101549
6 | 22:34.00 | 4:55.55 | 101550 | 123729
7 | 27:29.55 | 5:20.70 | 123730 | 147799
8 | 32:50.50 | 4:52.00 | 147800 | 169699
9 | 37:42.50 | 4:01.05 | 169700 | 187779
10 | 41:43.55 | 5:03.47 | 187780 | 210551
Range status and errors
Selected range
Filename D:\Torrents.ru\João Bosco\João Bosco - Ai Ai Ai De Mim\João Bosco - Ai Ai Ai De Mim.wav
Peak level 95.5 %
Range quality 97.9 %
Test CRC 2793C170
Copy CRC 2793C170
Copy OK
No errors occurred
AccurateRip summary
Track 1 cannot be verified as accurate (confidence 1) [98B38A7B], AccurateRip returned [5E4E9306]
Track 2 cannot be verified as accurate (confidence 1) [769F86C5], AccurateRip returned [6B1F781F]
Track 3 cannot be verified as accurate (confidence 1) [BA45F4D8], AccurateRip returned [6CC45CA7]
Track 4 cannot be verified as accurate (confidence 1) [BA7DA2D9], AccurateRip returned [88382CBF]
Track 5 cannot be verified as accurate (confidence 1) [81AC195A], AccurateRip returned [424B030D]
Track 6 cannot be verified as accurate (confidence 1) [F0E6892B], AccurateRip returned [B20B32C6]
Track 7 cannot be verified as accurate (confidence 1) [68A81C27], AccurateRip returned [2D43B003]
Track 8 cannot be verified as accurate (confidence 1) [421BF006], AccurateRip returned [57D2D6CF]
Track 9 cannot be verified as accurate (confidence 1) [94186CE9], AccurateRip returned [C9E1C853]
Track 10 cannot be verified as accurate (confidence 1) [DBC1C2BC], AccurateRip returned [6B0084B9]
No tracks could be verified as accurate
You may have a different pressing from the one(s) in the database
End of status report
 
Audiochecker
AUDIOCHECKER v2.0 beta (build 457) - by Dester - opdester@freemail.hu
~~~~~~~~~~~~~~~~~~~~~~~~~~~~~~~~~~
-=== DO NOT EDIT THIS FILE! ===-
Path: ...\João Bosco - Ai Ai Ai De Mim
1 -=- João Bosco - Ai Ai Ai De Mim.flac -=- CDDA (100%)
7220852
 
Tau Analyzer
По всем вопросам пишите личное сообщение пользователю M0p94ok.
08:26
274
Нет комментариев. Ваш будет первым!