Поиск

(World, Afro-beat, Ethnic Jazz, Funk) Tribeqa - Tribeqa - 2008, FLAC (tracks+.cue), lossless

(World, Afro-beat, Ethnic Jazz, Funk) Tribeqa - Tribeqa - 2008, FLAC (tracks+.cue), lossless
Треклист:
Tribeqa - Tribeqa
Жанр: World, Afro-beat, Ethnic Jazz, Funk
Год выпуска диска: 2008
Производитель диска: Underdog Records, France
Аудио кодек: FLAC
Тип рипа: tracks+.cue
Битрейт аудио: lossless
Продолжительность: 1:06:51
Трэклист:
01. A D (7:02)
02. Bridge The Gap (2:55)
03. Tribeqhouse (6:56)
04. Up & Down (6:57)
05. Amali Part 1 (2:52)
06. Amali Part 2 (4:46)
07. Tchefari (6:25)
08. Qaravan (6:55)
09. If We Could (5:07)
10. Qartel (5:02)
11. O Bebado (2:35)
12. Chinatown (6:31)
13. Better Days (2:49)
 
EAC log
Exact Audio Copy V0.99 prebeta 4 from 23. January 2008
EAC extraction logfile from 10. February 2009, 14:03
Tribeqa / Tribeqa
Used drive : SAMSUNG DVD-ROM SD-616E Adapter: 0 ID: 0
Read mode : Secure
Utilize accurate stream : Yes
Defeat audio cache : Yes
Make use of C2 pointers : No
Read offset correction : 12
Overread into Lead-In and Lead-Out : No
Fill up missing offset samples with silence : Yes
Delete leading and trailing silent blocks : No
Null samples used in CRC calculations : Yes
Used interface : Native Win32 interface for Win NT & 2000
Gap handling : Appended to previous track
Used output format : User Defined Encoder
Selected bitrate : 128 kBit/s
Quality : High
Add ID3 tag : No
Command line compressor : C:\Program Files\FLAC\flac.exe
Additional command line options : -8 -V -T "ARTIST=%a" -T "TITLE=%t" -T "ALBUM=%g" -T "DATE=%y" -T "TRACKNUMBER=%n" -T "GENRE=%m" -T "COMMENT=EAC FLAC -8" %s
TOC of the extracted CD
Track | Start | Length | Start sector | End sector
---------------------------------------------------------
1 | 0:00.00 | 7:01.64 | 0 | 31638
2 | 7:01.64 | 2:55.04 | 31639 | 44767
3 | 9:56.68 | 6:55.44 | 44768 | 75936
4 | 16:52.37 | 6:56.64 | 75937 | 107200
5 | 23:49.26 | 2:51.39 | 107201 | 120064
6 | 26:40.65 | 4:45.69 | 120065 | 141508
7 | 31:26.59 | 6:24.69 | 141509 | 170377
8 | 37:51.53 | 6:54.62 | 170378 | 201489
9 | 44:46.40 | 5:06.64 | 201490 | 224503
10 | 49:53.29 | 5:02.20 | 224504 | 247173
11 | 54:55.49 | 2:35.21 | 247174 | 258819
12 | 57:30.70 | 6:30.56 | 258820 | 288125
13 | 64:01.51 | 2:49.32 | 288126 | 300832
Track 1
Filename P:\DL temp\Tribeqa - Tribeqa (2008) [FLAC]\01 - A D.wav
Pre-gap length 0:00:02.00
Peak level 99.3 %
Track quality 100.0 %
Test CRC 856D7F3E
Copy CRC 856D7F3E
Track not present in AccurateRip database
Copy OK
Track 2
Filename P:\DL temp\Tribeqa - Tribeqa (2008) [FLAC]\02 - Bridge The Gap.wav
Peak level 100.0 %
Track quality 100.0 %
Test CRC 446160E2
Copy CRC 446160E2
Track not present in AccurateRip database
Copy OK
Track 3
Filename P:\DL temp\Tribeqa - Tribeqa (2008) [FLAC]\03 - Tribeqhouse.wav
Peak level 99.0 %
Track quality 100.0 %
Test CRC 105623EE
Copy CRC 105623EE
Track not present in AccurateRip database
Copy OK
Track 4
Filename P:\DL temp\Tribeqa - Tribeqa (2008) [FLAC]\04 - Up & Down.wav
Peak level 100.0 %
Track quality 100.0 %
Test CRC 9D0DED06
Copy CRC 9D0DED06
Track not present in AccurateRip database
Copy OK
Track 5
Filename P:\DL temp\Tribeqa - Tribeqa (2008) [FLAC]\05 - Amali Part 1.wav
Peak level 100.0 %
Track quality 100.0 %
Test CRC AAB83A47
Copy CRC AAB83A47
Track not present in AccurateRip database
Copy OK
Track 6
Filename P:\DL temp\Tribeqa - Tribeqa (2008) [FLAC]\06 - Amali Part 2.wav
Peak level 100.0 %
Track quality 99.9 %
Test CRC A2D94121
Copy CRC A2D94121
Track not present in AccurateRip database
Copy OK
Track 7
Filename P:\DL temp\Tribeqa - Tribeqa (2008) [FLAC]\07 - Tchefari.wav
Peak level 99.4 %
Track quality 100.0 %
Test CRC 3263076C
Copy CRC 3263076C
Track not present in AccurateRip database
Copy OK
Track 8
Filename P:\DL temp\Tribeqa - Tribeqa (2008) [FLAC]\08 - Qaravan.wav
Peak level 98.7 %
Track quality 100.0 %
Test CRC 59DADD57
Copy CRC 59DADD57
Track not present in AccurateRip database
Copy OK
Track 9
Filename P:\DL temp\Tribeqa - Tribeqa (2008) [FLAC]\09 - If We Could.wav
Peak level 99.7 %
Track quality 100.0 %
Test CRC 34DCFF09
Copy CRC 34DCFF09
Track not present in AccurateRip database
Copy OK
Track 10
Filename P:\DL temp\Tribeqa - Tribeqa (2008) [FLAC]\10 - Qartel.wav
Peak level 98.7 %
Track quality 100.0 %
Test CRC DCD41DD8
Copy CRC DCD41DD8
Track not present in AccurateRip database
Copy OK
Track 11
Filename P:\DL temp\Tribeqa - Tribeqa (2008) [FLAC]\11 - O Bebado.wav
Peak level 100.0 %
Track quality 100.0 %
Test CRC E7693836
Copy CRC E7693836
Track not present in AccurateRip database
Copy OK
Track 12
Filename P:\DL temp\Tribeqa - Tribeqa (2008) [FLAC]\12 - Chinatown.wav
Peak level 100.0 %
Track quality 100.0 %
Test CRC 4CAC7CBB
Copy CRC 4CAC7CBB
Track not present in AccurateRip database
Copy OK
Track 13
Filename P:\DL temp\Tribeqa - Tribeqa (2008) [FLAC]\13 - Better Days.wav
Peak level 98.8 %
Track quality 100.0 %
Test CRC FAA9DCA9
Copy CRC FAA9DCA9
Track not present in AccurateRip database
Copy OK
None of the tracks are present in the AccurateRip database
No errors occurred
End of status report
 
Audiocheker's log
Started at: воскресенье, 11. 10. 2009. - 1:21.56
13 files found
01 -===- G:\Downloads\Tribeqa - Tribeqa (2008) [FLAC]\01 - A D.flac
Extracted successfully
Conclusion: this track is CDDA with probability 100%
Tempfile successfully deleted.
02 -===- G:\Downloads\Tribeqa - Tribeqa (2008) [FLAC]\02 - Bridge The Gap.flac
Extracted successfully
Conclusion: this track is CDDA with probability 100%
Tempfile successfully deleted.
03 -===- G:\Downloads\Tribeqa - Tribeqa (2008) [FLAC]\03 - Tribeqhouse.flac
Extracted successfully
Conclusion: this track is CDDA with probability 100%
Tempfile successfully deleted.
04 -===- G:\Downloads\Tribeqa - Tribeqa (2008) [FLAC]\04 - Up & Down.flac
Extracted successfully
Conclusion: this track is CDDA with probability 100%
Tempfile successfully deleted.
05 -===- G:\Downloads\Tribeqa - Tribeqa (2008) [FLAC]\05 - Amali Part 1.flac
Extracted successfully
Conclusion: this track is CDDA with probability 100%
Tempfile successfully deleted.
06 -===- G:\Downloads\Tribeqa - Tribeqa (2008) [FLAC]\06 - Amali Part 2.flac
Extracted successfully
Conclusion: this track is CDDA with probability 100%
Tempfile successfully deleted.
07 -===- G:\Downloads\Tribeqa - Tribeqa (2008) [FLAC]\07 - Tchefari.flac
Extracted successfully
Conclusion: this track is CDDA with probability 100%
Tempfile successfully deleted.
08 -===- G:\Downloads\Tribeqa - Tribeqa (2008) [FLAC]\08 - Qaravan.flac
Extracted successfully
Conclusion: this track is CDDA with probability 100%
Tempfile successfully deleted.
09 -===- G:\Downloads\Tribeqa - Tribeqa (2008) [FLAC]\09 - If We Could.flac
Extracted successfully
Conclusion: this track is CDDA with probability 100%
Tempfile successfully deleted.
10 -===- G:\Downloads\Tribeqa - Tribeqa (2008) [FLAC]\10 - Qartel.flac
Extracted successfully
Conclusion: this track is CDDA with probability 100%
Tempfile successfully deleted.
11 -===- G:\Downloads\Tribeqa - Tribeqa (2008) [FLAC]\11 - O Bebado.flac
Extracted successfully
Conclusion: this track is CDDA with probability 100%
Tempfile successfully deleted.
12 -===- G:\Downloads\Tribeqa - Tribeqa (2008) [FLAC]\12 - Chinatown.flac
Extracted successfully
Conclusion: this track is CDDA with probability 100%
Tempfile successfully deleted.
13 -===- G:\Downloads\Tribeqa - Tribeqa (2008) [FLAC]\13 - Better Days.flac
Extracted successfully
Conclusion: this track is CDDA with probability 100%
Tempfile successfully deleted.
Finished at: воскресенье, 11. 10. 2009. - 1:38.15 (operation time: 0:16.18)
 
.cue
REM GENRE Jazz
REM DATE 2008
REM DISCID C60FAB0D
REM COMMENT "ExactAudioCopy v0.99pb4"
PERFORMER "Tribeqa"
TITLE "Tribeqa"
FILE "01 - A D.wav" WAVE
TRACK 01 AUDIO
TITLE "A D"
PERFORMER "Tribeqa"
INDEX 01 00:00:00
FILE "02 - Bridge The Gap.wav" WAVE
TRACK 02 AUDIO
TITLE "Bridge The Gap"
PERFORMER "Tribeqa"
INDEX 01 00:00:00
FILE "03 - Tribeqhouse.wav" WAVE
TRACK 03 AUDIO
TITLE "Tribeqhouse"
PERFORMER "Tribeqa"
INDEX 01 00:00:00
FILE "04 - Up & Down.wav" WAVE
TRACK 04 AUDIO
TITLE "Up & Down"
PERFORMER "Tribeqa"
INDEX 01 00:00:00
FILE "05 - Amali Part 1.wav" WAVE
TRACK 05 AUDIO
TITLE "Amali Part 1"
PERFORMER "Tribeqa"
INDEX 01 00:00:00
FILE "06 - Amali Part 2.wav" WAVE
TRACK 06 AUDIO
TITLE "Amali Part 2"
PERFORMER "Tribeqa"
INDEX 01 00:00:00
FILE "07 - Tchefari.wav" WAVE
TRACK 07 AUDIO
TITLE "Tchefari"
PERFORMER "Tribeqa"
INDEX 01 00:00:00
FILE "08 - Qaravan.wav" WAVE
TRACK 08 AUDIO
TITLE "Qaravan"
PERFORMER "Tribeqa"
INDEX 01 00:00:00
FILE "09 - If We Could.wav" WAVE
TRACK 09 AUDIO
TITLE "If We Could"
PERFORMER "Tribeqa"
INDEX 01 00:00:00
FILE "10 - Qartel.wav" WAVE
TRACK 10 AUDIO
TITLE "Qartel"
PERFORMER "Tribeqa"
INDEX 01 00:00:00
FILE "11 - O Bebado.wav" WAVE
TRACK 11 AUDIO
TITLE "O Bebado"
PERFORMER "Tribeqa"
INDEX 01 00:00:00
FILE "12 - Chinatown.wav" WAVE
TRACK 12 AUDIO
TITLE "Chinatown"
PERFORMER "Tribeqa"
INDEX 01 00:00:00
FILE "13 - Better Days.wav" WAVE
TRACK 13 AUDIO
TITLE "Better Days"
PERFORMER "Tribeqa"
INDEX 01 00:00:00
 
Log Accurip
[Verification date: 11.10.2009 16:01:46]
[Disc ID: 0021c25c-014ef549-c60fab0d]
Track [ CRC ] Status
01 [38bbebb3] (01/01) Accurately ripped as in pressing(s) #1
02 [155bfefd] (01/01) Accurately ripped as in pressing(s) #1
03 [0866f5f0] (01/01) Accurately ripped as in pressing(s) #1
04 [8ecf0cc5] (01/01) Accurately ripped as in pressing(s) #1
05 [c974d25a] (01/01) Accurately ripped as in pressing(s) #1
06 [e8c07d55] (01/01) Accurately ripped as in pressing(s) #1
07 [30a36008] (01/01) Accurately ripped as in pressing(s) #1
08 [4622a698] (01/01) Accurately ripped as in pressing(s) #1
09 [ac3349d2] (01/01) Accurately ripped as in pressing(s) #1
10 [50e5075f] (01/01) Accurately ripped as in pressing(s) #1
11 [5b546306] (01/01) Accurately ripped as in pressing(s) #1
12 [a53b337c] (01/01) Accurately ripped as in pressing(s) #1
13 [ba9561ef] (01/01) Accurately ripped as in pressing(s) #1
Track [ CRC32 ] [W/O NULL] [ LOG ]
-- [51553FC9] [1D4D8E56]
01 [856D7F3E] [14424566] CRC32
02 [446160E2] [84FB3436] CRC32
03 [105623EE] [8191C672] CRC32
04 [9D0DED06] [041FCDD3] CRC32
05 [AAB83A47] [428F4E05] CRC32
06 [A2D94121] [AA99FFD9] CRC32
07 [3263076C] [629F7E4E] CRC32
08 [59DADD57] [B739DF35] CRC32
09 [34DCFF09] [F134650D] CRC32
10 [DCD41DD8] [8F2B766D] CRC32
11 [E7693836] [9975454B] CRC32
12 [4CAC7CBB] [DDE1DA93] CRC32
13 [FAA9DCA9] [E54E6913] CRC32
Доп.информация:
Источник - другой трекер. Сканы в комплекте. Раздача осуществляется с любезного согласия оригинального релизера - dtromp.
Доп.доп.информация:
Послушать можно здесь, а посмотреть - здесь.
08:26
305
Нет комментариев. Ваш будет первым!