Поиск

(jazz / latin / classical / cuban / fusion / salsa) Klazz Brothers & Cuba Percussion - Mozart Meets Cuba - 2005, WAVPack (ISO image+.cue), lossless

Треклист:
Klazz Brothers & Cuba Percussion - Mozart Meets Cuba
Жанр: jazz / latin / classical / cuban / fusion / salsa
Год выпуска диска: 2005
Производитель диска: Sony Classical (SonyBMG) / Германия
Аудио кодек: WAVPack
Тип рипа: ISO image+.cue
Битрейт аудио: lossless
Продолжительность: 01:14:46
Примечание: EAC / WavPack / CUE / Log / Tags / Covers
Трэклист:
1. - Guantanameritmo
2. - Salzburger Schafferl
3. - Calypso Facile
4. - Poema con cohiba
5. - Kubanischer Marsch
6. - Afrolero
7. - Don Cajon
8. - Don Muerte
9. - Sonatadur
10. - Wenn Son, Danzon
11. - Reich mir die Hand
12. - Tercero de la Noche
13. - Yo siento mucho
14. - Bomba de la noche
15. - Hasta la vista Mozart
16. - Son de Mozart
17. - Mozartbique
18. - Ham and Figo
Доп. информация: Специальное издание этого альбома для amazon, с двумя бонус-треками, которых нет здесь.
"Klazz Brothers" - классические музыканты из Дрездена, Кильян и Тобиас Фостеры, ученики знаменитого Леонарда Бернстайна.
Оказавшись на гастролях в Кубе, братья познакомились с местными музыкантами и обнаружили, что несмотря на всю разницу между кубинской и немецкой культурой, они способны найти общий язык - язык нот и аккордов. Идея проекта "Classic Meets Cuba" родилась во время первого совместного турне "Klazz Brothers" и кубинского коллектива "Cuba Percussion".
Концертные импровизации, в ходе которых европейская классика насыщалась латиноамериканскими и кубинскими музыкальными традициями, воспринималась публикой на "ура", и музыканты решили выпустить целый альбом интерпретаций такого рода.
 
CUE
REM GENRE Jazz
REM DATE 2005
REM DISCID 0A118512
REM COMMENT "ExactAudioCopy v0.99pb4"
PERFORMER "Klazz Brothers & Cuba Percussion"
TITLE "Mozart meets Cuba"
FILE "Klazz Brothers & Cuba Percussion - Mozart meets Cuba.wv" WAVE
TRACK 01 AUDIO
TITLE "Guantanameritmo"
PERFORMER "Klazz Brothers & Cuba Percussion"
FLAGS DCP
INDEX 01 00:00:00
TRACK 02 AUDIO
TITLE "Salzburger Schafferl"
PERFORMER "Klazz Brothers & Cuba Percussion"
FLAGS DCP
INDEX 00 02:57:00
INDEX 01 02:59:24
TRACK 03 AUDIO
TITLE "Calypso Facile"
PERFORMER "Klazz Brothers & Cuba Percussion"
FLAGS DCP
INDEX 00 08:15:48
INDEX 01 08:16:11
TRACK 04 AUDIO
TITLE "Poema con cohiba"
PERFORMER "Klazz Brothers & Cuba Percussion"
FLAGS DCP
INDEX 00 14:25:60
INDEX 01 14:27:55
TRACK 05 AUDIO
TITLE "Kubanischer Marsch"
PERFORMER "Klazz Brothers & Cuba Percussion"
FLAGS DCP
INDEX 00 17:33:47
INDEX 01 17:35:00
TRACK 06 AUDIO
TITLE "Afrolero"
PERFORMER "Klazz Brothers & Cuba Percussion"
FLAGS DCP
INDEX 00 21:32:59
INDEX 01 21:35:17
TRACK 07 AUDIO
TITLE "Don Cajon"
PERFORMER "Klazz Brothers & Cuba Percussion"
FLAGS DCP
INDEX 00 26:40:54
INDEX 01 26:43:43
TRACK 08 AUDIO
TITLE "Don Muerte"
PERFORMER "Klazz Brothers & Cuba Percussion"
FLAGS DCP
INDEX 01 27:17:31
TRACK 09 AUDIO
TITLE "Sonatadur"
PERFORMER "Klazz Brothers & Cuba Percussion"
FLAGS DCP
INDEX 00 32:17:27
INDEX 01 32:20:32
TRACK 10 AUDIO
TITLE "Wenn Son, Danzon"
PERFORMER "Klazz Brothers & Cuba Percussion"
FLAGS DCP
INDEX 00 35:46:45
INDEX 01 35:49:36
TRACK 11 AUDIO
TITLE "Reich mir die Hand"
PERFORMER "Klazz Brothers & Cuba Percussion"
FLAGS DCP
INDEX 00 40:17:11
INDEX 01 40:21:43
TRACK 12 AUDIO
TITLE "Tercero de la Noche"
PERFORMER "Klazz Brothers & Cuba Percussion"
FLAGS DCP
INDEX 00 45:04:39
INDEX 01 45:06:24
TRACK 13 AUDIO
TITLE "Yo siento mucho"
PERFORMER "Klazz Brothers & Cuba Percussion"
FLAGS DCP
INDEX 00 50:10:70
INDEX 01 50:13:55
TRACK 14 AUDIO
TITLE "Bomba de la noche"
PERFORMER "Klazz Brothers & Cuba Percussion"
FLAGS DCP
INDEX 00 54:59:45
INDEX 01 55:02:37
TRACK 15 AUDIO
TITLE "Hasta la vista Mozart"
PERFORMER "Klazz Brothers & Cuba Percussion"
FLAGS DCP
INDEX 00 58:59:29
INDEX 01 59:02:15
TRACK 16 AUDIO
TITLE "Son de Mozart"
PERFORMER "Klazz Brothers & Cuba Percussion"
FLAGS DCP
INDEX 00 61:24:45
INDEX 01 61:29:64
TRACK 17 AUDIO
TITLE "Mozartbique"
PERFORMER "Klazz Brothers & Cuba Percussion"
FLAGS DCP
INDEX 00 65:51:38
INDEX 01 65:56:69
TRACK 18 AUDIO
TITLE "Ham and Figo"
PERFORMER "Klazz Brothers & Cuba Percussion"
FLAGS DCP
INDEX 00 69:46:13
INDEX 01 69:48:68
 
EAC Log
Exact Audio Copy V0.99 prebeta 4 from 23. January 2008
EAC extraction logfile from 14. February 2009, 23:28
Klazz Brothers & Cuba Percussion / Mozart meets Cuba
Used drive : HL-DT-STDVD-RAM GSA-H55L Adapter: 0 ID: 0
Read mode : Secure
Utilize accurate stream : Yes
Defeat audio cache : Yes
Make use of C2 pointers : No
Read offset correction : 102
Overread into Lead-In and Lead-Out : No
Fill up missing offset samples with silence : Yes
Delete leading and trailing silent blocks : No
Null samples used in CRC calculations : Yes
Used interface : Native Win32 interface for Win NT & 2000
Used output format : Internal WAV Routines
Sample format : 44.100 Hz; 16 Bit; Stereo
TOC of the extracted CD
Track | Start | Length | Start sector | End sector
---------------------------------------------------------
1 | 0:00.00 | 2:59.24 | 0 | 13448
2 | 2:59.24 | 5:16.62 | 13449 | 37210
3 | 8:16.11 | 6:11.44 | 37211 | 65079
4 | 14:27.55 | 3:07.20 | 65080 | 79124
5 | 17:35.00 | 4:00.17 | 79125 | 97141
6 | 21:35.17 | 5:08.26 | 97142 | 120267
7 | 26:43.43 | 0:33.63 | 120268 | 122805
8 | 27:17.31 | 5:03.01 | 122806 | 145531
9 | 32:20.32 | 3:29.04 | 145532 | 161210
10 | 35:49.36 | 4:32.07 | 161211 | 181617
11 | 40:21.43 | 4:44.56 | 181618 | 202973
12 | 45:06.24 | 5:07.31 | 202974 | 226029
13 | 50:13.55 | 4:48.57 | 226030 | 247686
14 | 55:02.37 | 3:59.53 | 247687 | 265664
15 | 59:02.15 | 2:27.49 | 265665 | 276738
16 | 61:29.64 | 4:27.05 | 276739 | 296768
17 | 65:56.69 | 3:51.74 | 296769 | 314167
18 | 69:48.68 | 4:56.45 | 314168 | 336412
Range status and errors
Selected range
Filename D:\Klazz Brothers\Klazz Brothers & Cuba Percussion - Mozart meets Cuba.wav
Peak level 100.0 %
Range quality 99.9 %
Copy CRC 40C9EF7A
Copy OK
No errors occurred
AccurateRip summary
Track 1 accurately ripped (confidence 2) [A32513FA]
Track 2 accurately ripped (confidence 2) [4844D126]
Track 3 accurately ripped (confidence 2) [064461D6]
Track 4 accurately ripped (confidence 2) [7C2B2F87]
Track 5 accurately ripped (confidence 2) [6FFBD3B9]
Track 6 accurately ripped (confidence 2) [94261489]
Track 7 accurately ripped (confidence 2) [B915F515]
Track 8 accurately ripped (confidence 2) [593CE20C]
Track 9 accurately ripped (confidence 2) [F540DC3A]
Track 10 accurately ripped (confidence 2) [847344B4]
Track 11 accurately ripped (confidence 2) [A7E622FE]
Track 12 accurately ripped (confidence 2) [4327064A]
Track 13 accurately ripped (confidence 2) [11AFC632]
Track 14 accurately ripped (confidence 2) [96324FBD]
Track 15 accurately ripped (confidence 2) [81DBF115]
Track 16 accurately ripped (confidence 2) [C49FE2F4]
Track 17 accurately ripped (confidence 2) [02F43CDD]
Track 18 accurately ripped (confidence 2) [0639305D]
All tracks accurately ripped
End of status report
Download available for power users only.
05:00
219
Нет комментариев. Ваш будет первым!