Поиск

(Jazz / Bossa Nova) Antonio Carlos Jobim & The New Band - Passarim - 1987, FLAC (tracks+.cue), lossless

(Jazz / Bossa Nova) Antonio Carlos Jobim & The New Band - Passarim - 1987, FLAC (tracks+.cue), lossless
Треклист:
Antonio Carlos Jobim & The New Band - Passarim
Жанр: Jazz / Bossa Nova
Лейбл: Verve
Год выпуска : 1987
Аудио кодек: FLAC
Тип рипа: tracks+.cue
Битрейт аудио: lossless
Продолжительность: 00:48:36
Признательность за рип: porquinho

1. Passarim (English Version) (3:37)
2. Bebel (3:12)
3. Borzeguim (4:23)
4. Looks Like December (3:46)
5. Isabella (3:24)
6. Fascination' Rhythm (2:11)
7. Chansong (3:20)
8. Samba Do Soho (3:01)
9. Luiza (2:32)
10. Brasil Nativo (3:52)
11. Gabriela (7:57)
12. Anos Dourados (Looks Like December) (3:44)
13. Passarim (3:37)
 
Лог создания рипа
Exact Audio Copy V0.99 prebeta 4 from 23. January 2008
EAC extraction logfile from 17. February 2009, 19:18
Antonio Carlos Jobim & The New Band / Passarim
Used drive : _NEC DVD+-RW ND-6650A Adapter: 1 ID: 0
Read mode : Secure
Utilize accurate stream : Yes
Defeat audio cache : Yes
Make use of C2 pointers : No
Read offset correction : 48
Overread into Lead-In and Lead-Out : No
Fill up missing offset samples with silence : Yes
Delete leading and trailing silent blocks : No
Null samples used in CRC calculations : Yes
Used interface : Native Win32 interface for Win NT & 2000
Gap handling : Appended to previous track
Used output format : User Defined Encoder
Selected bitrate : 128 kBit/s
Quality : High
Add ID3 tag : No
Command line compressor : C:\Program Files\FLAC\FLAC frontend.exe
Additional command line options : -V -8 -T "artist=%a" -T "title=%t" -T "album=%g" -T "date=%y" -T "tracknumber=%n" -T "genre=%m" %s
TOC of the extracted CD
Track | Start | Length | Start sector | End sector
---------------------------------------------------------
1 | 0:00.00 | 3:37.59 | 0 | 16333
2 | 3:37.59 | 3:12.72 | 16334 | 30805
3 | 6:50.56 | 4:23.48 | 30806 | 50578
4 | 11:14.29 | 3:46.11 | 50579 | 67539
5 | 15:00.40 | 3:24.16 | 67540 | 82855
6 | 18:24.56 | 2:11.62 | 82856 | 92742
7 | 20:36.43 | 3:20.57 | 92743 | 107799
8 | 23:57.25 | 3:01.00 | 107800 | 121374
9 | 26:58.25 | 2:32.00 | 121375 | 132774
10 | 29:30.25 | 3:52.37 | 132775 | 150211
11 | 33:22.62 | 7:57.60 | 150212 | 186046
12 | 41:20.47 | 3:44.09 | 186047 | 202855
13 | 45:04.56 | 3:37.02 | 202856 | 219132
Track 1
Filename G:\Rips\Antonio Carlos Jobim & The New Band - Passarim (1987) [FLAC]\01 - Passarim (English Version).wav
Pre-gap length 0:00:02.00
Peak level 100.0 %
Track quality 100.0 %
Test CRC F1D6207F
Copy CRC F1D6207F
Track not present in AccurateRip database
Copy OK
Track 2
Filename G:\Rips\Antonio Carlos Jobim & The New Band - Passarim (1987) [FLAC]\02 - Bebel.wav
Pre-gap length 0:00:01.90
Peak level 99.8 %
Track quality 100.0 %
Test CRC 063F86AE
Copy CRC 063F86AE
Track not present in AccurateRip database
Copy OK
Track 3
Filename G:\Rips\Antonio Carlos Jobim & The New Band - Passarim (1987) [FLAC]\03 - Borzeguim.wav
Pre-gap length 0:00:02.33
Peak level 100.0 %
Track quality 99.9 %
Test CRC AC253466
Copy CRC AC253466
Track not present in AccurateRip database
Copy OK
Track 4
Filename G:\Rips\Antonio Carlos Jobim & The New Band - Passarim (1987) [FLAC]\04 - Looks Like December.wav
Peak level 97.9 %
Track quality 99.9 %
Test CRC D21AE9B7
Copy CRC D21AE9B7
Track not present in AccurateRip database
Copy OK
Track 5
Filename G:\Rips\Antonio Carlos Jobim & The New Band - Passarim (1987) [FLAC]\05 - Isabella.wav
Pre-gap length 0:00:01.04
Peak level 100.0 %
Track quality 99.9 %
Test CRC C7FC8453
Copy CRC C7FC8453
Track not present in AccurateRip database
Copy OK
Track 6
Filename G:\Rips\Antonio Carlos Jobim & The New Band - Passarim (1987) [FLAC]\06 - Fascination' Rhythm.wav
Pre-gap length 0:00:01.32
Peak level 100.0 %
Track quality 99.9 %
Test CRC 85458662
Copy CRC 85458662
Track not present in AccurateRip database
Copy OK
Track 7
Filename G:\Rips\Antonio Carlos Jobim & The New Band - Passarim (1987) [FLAC]\07 - Chansong.wav
Pre-gap length 0:00:02.05
Peak level 98.1 %
Track quality 100.0 %
Test CRC 9FFA8894
Copy CRC 9FFA8894
Track not present in AccurateRip database
Copy OK
Track 8
Filename G:\Rips\Antonio Carlos Jobim & The New Band - Passarim (1987) [FLAC]\08 - Samba Do Soho.wav
Pre-gap length 0:00:01.90
Peak level 100.0 %
Track quality 99.9 %
Test CRC B81CEAC9
Copy CRC B81CEAC9
Track not present in AccurateRip database
Copy OK
Track 9
Filename G:\Rips\Antonio Carlos Jobim & The New Band - Passarim (1987) [FLAC]\09 - Luiza.wav
Pre-gap length 0:00:02.34
Peak level 97.8 %
Track quality 100.0 %
Test CRC 952BD53B
Copy CRC 952BD53B
Track not present in AccurateRip database
Copy OK
Track 10
Filename G:\Rips\Antonio Carlos Jobim & The New Band - Passarim (1987) [FLAC]\10 - Brasil Nativo.wav
Peak level 100.0 %
Track quality 100.0 %
Test CRC 80283B35
Copy CRC 80283B35
Track not present in AccurateRip database
Copy OK
Track 11
Filename G:\Rips\Antonio Carlos Jobim & The New Band - Passarim (1987) [FLAC]\11 - Gabriela.wav
Pre-gap length 0:00:02.33
Peak level 98.5 %
Track quality 100.0 %
Test CRC 5B3FCFB2
Copy CRC 5B3FCFB2
Track not present in AccurateRip database
Copy OK
Track 12
Filename G:\Rips\Antonio Carlos Jobim & The New Band - Passarim (1987) [FLAC]\12 - Anos Dourados (Looks Like December).wav
Pre-gap length 0:00:01.02
Peak level 96.0 %
Track quality 99.9 %
Test CRC 03EC0F3A
Copy CRC 03EC0F3A
Track not present in AccurateRip database
Copy OK
Track 13
Filename G:\Rips\Antonio Carlos Jobim & The New Band - Passarim (1987) [FLAC]\13 - Passarim.wav
Peak level 98.8 %
Track quality 100.0 %
Test CRC 28DA4591
Copy CRC 28DA4591
Track not present in AccurateRip database
Copy OK
None of the tracks are present in the AccurateRip database
No errors occurred
End of status report
 
Содержание индексной карты (.CUE)
REM GENRE Jazz
REM DATE 1987
REM DISCID 990B690D
REM COMMENT "ExactAudioCopy v0.99pb4"
PERFORMER "Antonio Carlos Jobim & The New Band"
TITLE "Passarim"
FILE "01 - Passarim (English Version).wav" WAVE
TRACK 01 AUDIO
TITLE "Passarim (English Version)"
PERFORMER "Antonio Carlos Jobim & The New Band"
INDEX 01 00:00:00
TRACK 02 AUDIO
TITLE "Bebel"
PERFORMER "Antonio Carlos Jobim & The New Band"
INDEX 00 03:35:66
FILE "02 - Bebel.wav" WAVE
INDEX 01 00:00:00
TRACK 03 AUDIO
TITLE "Borzeguim"
PERFORMER "Antonio Carlos Jobim & The New Band"
INDEX 00 03:10:47
FILE "03 - Borzeguim.wav" WAVE
INDEX 01 00:00:00
FILE "04 - Looks Like December.wav" WAVE
TRACK 04 AUDIO
TITLE "Looks Like December"
PERFORMER "Antonio Carlos Jobim & The New Band"
INDEX 01 00:00:00
TRACK 05 AUDIO
TITLE "Isabella"
PERFORMER "Antonio Carlos Jobim & The New Band"
INDEX 00 03:45:08
FILE "05 - Isabella.wav" WAVE
INDEX 01 00:00:00
TRACK 06 AUDIO
TITLE "Fascination' Rhythm"
PERFORMER "Antonio Carlos Jobim & The New Band"
INDEX 00 03:22:67
FILE "06 - Fascination' Rhythm.wav" WAVE
INDEX 01 00:00:00
TRACK 07 AUDIO
TITLE "Chansong"
PERFORMER "Antonio Carlos Jobim & The New Band"
INDEX 00 02:09:58
FILE "07 - Chansong.wav" WAVE
INDEX 01 00:00:00
TRACK 08 AUDIO
TITLE "Samba Do Soho"
PERFORMER "Antonio Carlos Jobim & The New Band"
INDEX 00 03:18:64
FILE "08 - Samba Do Soho.wav" WAVE
INDEX 01 00:00:00
TRACK 09 AUDIO
TITLE "Luiza"
PERFORMER "Antonio Carlos Jobim & The New Band"
INDEX 00 02:58:49
FILE "09 - Luiza.wav" WAVE
INDEX 01 00:00:00
FILE "10 - Brasil Nativo.wav" WAVE
TRACK 10 AUDIO
TITLE "Brasil Nativo"
PERFORMER "Antonio Carlos Jobim & The New Band"
INDEX 01 00:00:00
TRACK 11 AUDIO
TITLE "Gabriela"
PERFORMER "Antonio Carlos Jobim & The New Band"
INDEX 00 03:50:12
FILE "11 - Gabriela.wav" WAVE
INDEX 01 00:00:00
TRACK 12 AUDIO
TITLE "Anos Dourados (Looks Like December)"
PERFORMER "Antonio Carlos Jobim & The New Band"
INDEX 00 07:56:58
FILE "12 - Anos Dourados (Looks Like December).wav" WAVE
INDEX 01 00:00:00
FILE "13 - Passarim.wav" WAVE
TRACK 13 AUDIO
TITLE "Passarim"
PERFORMER "Antonio Carlos Jobim & The New Band"
INDEX 01 00:00:00
 
Участники
Download available for power users only.
05:00
278
Нет комментариев. Ваш будет первым!