Поиск

(ethnic jazz,avant-garde) Arto Tuncboyaciyan(Арто Тунчбояджян) - 3 альбома - 1997, FLAC (image+.cue), lossless

(ethnic jazz,avant-garde) Arto Tuncboyaciyan(Арто Тунчбояджян) - 3 альбома - 1997, FLAC (image+.cue), lossless
Треклист:
Arto Tuncboyaciyan(Арто Тунчбояджян) - 3 альбома
Жанр: ethnojazz,avantgarde
Год выпуска диска: 1997
Производитель диска: Armenia
Аудио кодек: FLAC
Тип рипа: image+.cue
Битрейт аудио: lossless
Продолжительность: 44+54+54
Трэклист:
 
Arto Tuncboyacian & Aydin Esen 1997, 44:34
1.Hand to hand "Elele"
2.Naiv "Masum"
3.Caravan "Kervan"
4.Loop "Dongu"
5.Don't knock on my door
6.Different worlds "Degisik dunyalar"
7.Sound "Seda"
8.Little soldier "Bzdik zinvor"
9.Let's have a fun on the border
 
log EAC
Exact Audio Copy V0.99 prebeta 4 from 23. January 2008
Отчёт EAC об извлечении, выполненном 14. февраля 2009, 13:19
Arto Tuncboyaciyan & Aydin Esen / Turar
Дисковод: HL-DT-STDVDRAM GSA-4163B Adapter: 3 ID: 0
Режим чтения : Достоверность
Использование точного потока : Да
Отключение кэша аудио : Да
Использование указателей C2 : Нет
Коррекция смещения при чтении : 667
Способность читать области Lead-in и Lead-out : Нет
Заполнение пропущенных сэмплов тишиной : Да
Удаление блоков с тишиной в начале и конце : Нет
При вычислениях CRC использовались нулевые сэмплы : Да
Интерфейс : Установленный внешний ASPI-интерфейс
Выходной формат : Пользовательский кодировщик
Выбранный битрейт : 768 kBit/s
Качество : Высокий
Добавление ID3-тэга : Нет
Утилита сжатия : C:\Program Files\Exact Audio Copy\Flac\flac.exe
Дополнительные параметры : -V -8 -T "artist=%a" -T "title=%t" -T "album=%g" -T "date=%y" -T "tracknumber=%n" -T "genre=%m" %s
TOC извлечённого CD
Трек | Старт | Длительность | Начальный сектор | Конечный сектор
---------------------------------------------------------------------
1 | 0:00.00 | 7:17.09 | 0 | 32783
2 | 7:17.09 | 5:14.39 | 32784 | 56372
3 | 12:31.48 | 8:09.56 | 56373 | 93103
4 | 20:41.29 | 1:34.72 | 93104 | 100225
5 | 22:16.26 | 4:37.32 | 100226 | 121032
6 | 26:53.58 | 3:54.49 | 121033 | 138631
7 | 30:48.32 | 4:11.07 | 138632 | 157463
8 | 34:59.39 | 5:04.48 | 157464 | 180311
9 | 40:04.12 | 4:34.65 | 180312 | 200926
Характеристики диапазона извлечения и сообщения об ошибках
Выбранный диапазон
Имя файла C:\Documents and Settings\Admin\Рабочий стол\Amenian Navy Band\Arto&Aydin esen_Turar\Arto Tuncboyaciyan & Aydin Esen - Turar.wav
Пиковый уровень 100.0 %
Качество диапазона 100.0 %
CRC копии 71FD7361
Копирование... OK
Ошибок не произошло
AccurateRip: сводка
Трек 1 нет в базе данных
Трек 2 нет в базе данных
Трек 3 нет в базе данных
Трек 4 нет в базе данных
Трек 5 нет в базе данных
Трек 6 нет в базе данных
Трек 7 нет в базе данных
Трек 8 нет в базе данных
Трек 9 нет в базе данных
Ни одного трека нет в базе AccurateRip
Конец отчёта
 
log AUDIOCHECKER
AUDIOCHECKER v2.0 beta (build 457) - by Dester - opdester@freemail.hu
~~~~~~~~~~~~~~~~~~~~~~~~~~~~~~~~~~
Started at: суббота, 14. 02. 2009. - 1:02.03
9 files found
1 -===- track 1 in drive HL-DT-STDVDRAM GSA-H10N
Track ripped successfully
Conclusion: this track is CDDA with probability 100%
Tempfile successfully deleted.
2 -===- track 2 in drive HL-DT-STDVDRAM GSA-H10N
Track ripped successfully
Conclusion: this track is CDDA with probability 100%
Tempfile successfully deleted.
3 -===- track 3 in drive HL-DT-STDVDRAM GSA-H10N
Track ripped successfully
Conclusion: this track is CDDA with probability 100%
Tempfile successfully deleted.
4 -===- track 4 in drive HL-DT-STDVDRAM GSA-H10N
Track ripped successfully
Conclusion: this track is CDDA with probability 100%
Tempfile successfully deleted.
5 -===- track 5 in drive HL-DT-STDVDRAM GSA-H10N
Track ripped successfully
Conclusion: this track is CDDA with probability 99%
Tempfile successfully deleted.
6 -===- track 6 in drive HL-DT-STDVDRAM GSA-H10N
Track ripped successfully
Conclusion: this track is CDDA with probability 100%
Tempfile successfully deleted.
7 -===- track 7 in drive HL-DT-STDVDRAM GSA-H10N
Track ripped successfully
Conclusion: this track is CDDA with probability 100%
Tempfile successfully deleted.
8 -===- track 8 in drive HL-DT-STDVDRAM GSA-H10N
Track ripped successfully
Conclusion: this track is MPEG with probability 95%
Tempfile successfully deleted.
9 -===- track 9 in drive HL-DT-STDVDRAM GSA-H10N
Track ripped successfully
Conclusion: this track is CDDA with probability 100%
Tempfile successfully deleted.
Finished at: суббота, 14. 02. 2009. - 1:18.50 (operation time: 0:16.46)
 
спектр 8 трека
в данном случае,к сожалению, 8й трек является апконвертом, остальные в норме.
 
спектр в качестве примера, другого трека (№4)
 
Love is not in your mind 2005, 54:02

1 Don'T Fight
2 April 24
3 How Can I Say
4 Jangire Jangurna
5 Dancing With The Devil
6 Street Walk
7 New Flower
8 Other Side Of The River
9 One Moment Of Silence
10 Black Water
11 Love Is Not In Your Mind
12 Welcome Boo Boo
 
log EAC
Exact Audio Copy V0.99 prebeta 4 from 23. January 2008
Отчёт EAC об извлечении, выполненном 14. февраля 2009, 12:36
Arto Tunзboyaciyan / Love Is Not in Your Mind
Дисковод: HL-DT-STDVDRAM GSA-4163B Adapter: 3 ID: 0
Режим чтения : Достоверность
Использование точного потока : Да
Отключение кэша аудио : Да
Использование указателей C2 : Нет
Коррекция смещения при чтении : 667
Способность читать области Lead-in и Lead-out : Нет
Заполнение пропущенных сэмплов тишиной : Да
Удаление блоков с тишиной в начале и конце : Нет
При вычислениях CRC использовались нулевые сэмплы : Да
Интерфейс : Установленный внешний ASPI-интерфейс
Выходной формат : Пользовательский кодировщик
Выбранный битрейт : 768 kBit/s
Качество : Высокий
Добавление ID3-тэга : Нет
Утилита сжатия : C:\Program Files\Exact Audio Copy\Flac\flac.exe
Дополнительные параметры : -V -8 -T "artist=%a" -T "title=%t" -T "album=%g" -T "date=%y" -T "tracknumber=%n" -T "genre=%m" %s
TOC извлечённого CD
Трек | Старт | Длительность | Начальный сектор | Конечный сектор
---------------------------------------------------------------------
1 | 0:00.00 | 5:27.65 | 0 | 24589
2 | 5:27.65 | 2:55.02 | 24590 | 37716
3 | 8:22.67 | 6:28.35 | 37717 | 66851
4 | 14:51.27 | 2:28.60 | 66852 | 78011
5 | 17:20.12 | 3:06.03 | 78012 | 91964
6 | 20:26.15 | 5:32.30 | 91965 | 116894
7 | 25:58.45 | 6:01.07 | 116895 | 143976
8 | 31:59.52 | 4:56.35 | 143977 | 166211
9 | 36:56.12 | 3:46.05 | 166212 | 183166
10 | 40:42.17 | 4:03.65 | 183167 | 201456
11 | 44:46.07 | 5:32.65 | 201457 | 226421
12 | 50:18.72 | 3:48.15 | 226422 | 243536
Характеристики диапазона извлечения и сообщения об ошибках
Выбранный диапазон
Имя файла C:\Documents and Settings\Admin\Рабочий стол\Amenian Navy Band\Love is not in your mind\Arto Tunзboyaciyan - Love Is Not in Your Mind.wav
Пиковый уровень 100.0 %
Качество диапазона 100.0 %
CRC копии 5C6391FB
Копирование... OK
Ошибок не произошло
AccurateRip: сводка
Трек 1 нет в базе данных
Трек 2 нет в базе данных
Трек 3 нет в базе данных
Трек 4 нет в базе данных
Трек 5 нет в базе данных
Трек 6 нет в базе данных
Трек 7 нет в базе данных
Трек 8 нет в базе данных
Трек 9 нет в базе данных
Трек 10 нет в базе данных
Трек 11 нет в базе данных
Трек 12 нет в базе данных
Ни одного трека нет в базе AccurateRip
Конец отчёта
 
log AUDIOCHECKER
AUDIOCHECKER v2.0 beta (build 457) - by Dester - opdester@freemail.hu
~~~~~~~~~~~~~~~~~~~~~~~~~~~~~~~~~~
Started at: суббота, 14. 02. 2009. - 0:23.49
12 files found
01 -===- track 1 in drive HL-DT-STDVDRAM GSA-4163B
Track ripped successfully
Conclusion: this track is CDDA with probability 100%
Tempfile successfully deleted.
02 -===- track 2 in drive HL-DT-STDVDRAM GSA-4163B
Track ripped successfully
Conclusion: this track is CDDA with probability 100%
Tempfile successfully deleted.
03 -===- track 3 in drive HL-DT-STDVDRAM GSA-4163B
Track ripped successfully
Conclusion: this track is CDDA with probability 100%
Tempfile successfully deleted.
04 -===- track 4 in drive HL-DT-STDVDRAM GSA-4163B
Track ripped successfully
Conclusion: this track is CDDA with probability 99%
Tempfile successfully deleted.
05 -===- track 5 in drive HL-DT-STDVDRAM GSA-4163B
Track ripped successfully
Conclusion: this track is CDDA with probability 100%
Tempfile successfully deleted.
06 -===- track 6 in drive HL-DT-STDVDRAM GSA-4163B
Track ripped successfully
Conclusion: this track is CDDA with probability 100%
Tempfile successfully deleted.
07 -===- track 7 in drive HL-DT-STDVDRAM GSA-4163B
Track ripped successfully
Conclusion: this track is CDDA with probability 99%
Tempfile successfully deleted.
08 -===- track 8 in drive HL-DT-STDVDRAM GSA-4163B
Track ripped successfully
Conclusion: this track is CDDA with probability 99%
Tempfile successfully deleted.
09 -===- track 9 in drive HL-DT-STDVDRAM GSA-4163B
Track ripped successfully
Conclusion: this track is CDDA with probability 100%
Tempfile successfully deleted.
10 -===- track 10 in drive HL-DT-STDVDRAM GSA-4163B
Track ripped successfully
Conclusion: this track is CDDA with probability 85%
Tempfile successfully deleted.
11 -===- track 11 in drive HL-DT-STDVDRAM GSA-4163B
Track ripped successfully
Conclusion: this track is CDDA with probability 100%
Tempfile successfully deleted.
12 -===- track 12 in drive HL-DT-STDVDRAM GSA-4163B
Track ripped successfully
Conclusion: this track is CDDA with probability 100%
Tempfile successfully deleted.
Finished at: суббота, 14. 02. 2009. - 0:48.47 (operation time: 0:24.58)
 
spektr 10 tr
 
рецензия
Arto Tunçboyaciyan & Vahagn Hayrapetyan :: Love Is Not in Your Mind
(p) & (c) 2004 Heaven and Earth
12 tks
Арто Тунчбояджан – перкуссия, вокал, булар; Ваагн Айрапетян – клавишные.
2004 год для Арто Тунчбояджана выдался “урожайным”: он записал 3 альбома – Sound of Our Life, Artostan, Love Is Not in Your Mind. Если первый – коллективный труд руководимого им ансамбля Armenian Navy Band, второй – соло альбом, то рассматриваемый – плод совместного труда Арто и клавишника Ваагна Айрапетяна. Хочу сразу предупредить звучащие на диске композиции невозможно отнести ни к одному из известных жанров и стилей музыки. Несомненно, что при записи использовались приемы джаза, фольклора, современного авангарда, но полностью музыка, написанная и исполняемая армянским перкуссионистом и певцом не подпадает ни под одно из официальынх определений. Арто, как обычно, стучит на всем, что издает звуки, играет на изобретенном им самим струнном инструменте булар и поет. Если при первом прослушивание вам покажется, что это альбом армянской народной музыки, то чем дальше, тем больше вы будете различать джазовые аккорды, джазроковые и фанковые приемы клавишника. И где-то после третьей композиции вы начнете теряться в догадках – что же это за музыка звучит? Практически невозможно говорить и о технике исполнителей, аранжировке, построении композиций. Как мне кажется, запись эта больше походит на спонтанную импровизацию, треки писались “на раз”, продуманной была лишь общая концепция, все остальное – вольная импровизация. А потому следует говорить лишь о настроении, состоянии, впечатлении от музыки. Вы были когда-нибудь в горах? Слышали как громко шумит маленький горный ручей? Видели средневековые армянские храмы и крепости? Если ваши ответы утвердительные, то слушая этот альбом, вы сразу вспомните свои впечатления. Если вы не были, не слышали, не видели, то музыка с этого альбома будет вам большим подспорьем в деле знакомства с армянской историей и природой.
Армен МАНУКЯН
 
Artostan - Little protesta 2004, 54:49

1 Tikran Solo
2 Artostan Radio Signal
3 Mr. Artostan
4 Hello Good People
5 Sound Of Silence
6 I'M A Good Crazy Boy
7 Earth Giving Birth
8 Don'T Say Nothing
9 Everything Is Going To Be Okay
10 I Love You D
11 Traveling To The Sun
12 Abush
13 Back Home
14 Funny Bular
15 Fast Like A Turtle
16 With Peace
17 Little Protesta
18 Hava A Nice Day
 
log EAC
Exact Audio Copy V0.99 prebeta 4 from 23. January 2008
Отчёт EAC об извлечении, выполненном 14. февраля 2009, 12:10
Arto Tunзboyaciyan / Little Protesta
Дисковод: HL-DT-STDVDRAM GSA-4163B Adapter: 3 ID: 0
Режим чтения : Достоверность
Использование точного потока : Да
Отключение кэша аудио : Да
Использование указателей C2 : Нет
Коррекция смещения при чтении : 667
Способность читать области Lead-in и Lead-out : Нет
Заполнение пропущенных сэмплов тишиной : Да
Удаление блоков с тишиной в начале и конце : Нет
При вычислениях CRC использовались нулевые сэмплы : Да
Интерфейс : Установленный внешний ASPI-интерфейс
Выходной формат : Пользовательский кодировщик
Выбранный битрейт : 768 kBit/s
Качество : Высокий
Добавление ID3-тэга : Нет
Утилита сжатия : C:\Program Files\Exact Audio Copy\Flac\flac.exe
Дополнительные параметры : -V -8 -T "artist=%a" -T "title=%t" -T "album=%g" -T "date=%y" -T "tracknumber=%n" -T "genre=%m" %s
TOC извлечённого CD
Трек | Старт | Длительность | Начальный сектор | Конечный сектор
---------------------------------------------------------------------
1 | 0:00.00 | 0:13.50 | 0 | 1024
2 | 0:13.50 | 0:54.20 | 1025 | 5094
3 | 1:07.70 | 0:15.52 | 5095 | 6271
4 | 1:23.47 | 2:43.70 | 6272 | 18566
5 | 4:07.42 | 4:58.20 | 18567 | 40936
6 | 9:05.62 | 6:22.53 | 40937 | 69639
7 | 15:28.40 | 5:11.14 | 69640 | 92978
8 | 20:39.54 | 1:08.08 | 92979 | 98086
9 | 21:47.62 | 3:42.45 | 98087 | 114781
10 | 25:30.32 | 4:11.08 | 114782 | 133614
11 | 29:41.40 | 1:05.07 | 133615 | 138496
12 | 30:46.47 | 3:52.28 | 138497 | 155924
13 | 34:39.00 | 2:32.00 | 155925 | 167324
14 | 37:11.00 | 1:16.60 | 167325 | 173084
15 | 38:27.60 | 5:12.55 | 173085 | 196539
16 | 43:40.40 | 0:52.35 | 196540 | 200474
17 | 44:33.00 | 6:47.30 | 200475 | 231029
18 | 51:20.30 | 3:36.57 | 231030 | 247286
Характеристики диапазона извлечения и сообщения об ошибках
Выбранный диапазон
Имя файла C:\Documents and Settings\Admin\Рабочий стол\Amenian Navy Band\Artostan\Arto Tunзboyaciyan - Little Protesta.wav
Пиковый уровень 100.0 %
Качество диапазона 100.0 %
CRC копии 7DDE1909
Копирование... OK
Ошибок не произошло
AccurateRip: сводка
Трек 1 нет в базе данных
Трек 2 нет в базе данных
Трек 3 нет в базе данных
Трек 4 нет в базе данных
Трек 5 нет в базе данных
Трек 6 нет в базе данных
Трек 7 нет в базе данных
Трек 8 нет в базе данных
Трек 9 нет в базе данных
Трек 10 нет в базе данных
Трек 11 нет в базе данных
Трек 12 нет в базе данных
Трек 13 нет в базе данных
Трек 14 нет в базе данных
Трек 15 нет в базе данных
Трек 16 нет в базе данных
Трек 17 нет в базе данных
Трек 18 нет в базе данных
Ни одного трека нет в базе AccurateRip
Конец отчёта
 
log AUDIOCHECKER
AUDIOCHECKER v2.0 beta (build 457) - by Dester - opdester@freemail.hu
~~~~~~~~~~~~~~~~~~~~~~~~~~~~~~~~~~
Started at: пятница, 13. 02. 2009. - 23:39.49
18 files found
01 -===- track 1 in drive HL-DT-STDVDRAM GSA-H10N
Track ripped successfully
Conclusion: this track is CDDA with probability 92%
Tempfile successfully deleted.
02 -===- track 2 in drive HL-DT-STDVDRAM GSA-H10N
Track ripped successfully
Conclusion: this track is CDDA with probability 94%
Tempfile successfully deleted.
03 -===- track 3 in drive HL-DT-STDVDRAM GSA-H10N
Track ripped successfully
Conclusion: this track is CDDA with probability 100%
Tempfile successfully deleted.
04 -===- track 4 in drive HL-DT-STDVDRAM GSA-H10N
Track ripped successfully
Conclusion: this track is CDDA with probability 100%
Tempfile successfully deleted.
05 -===- track 5 in drive HL-DT-STDVDRAM GSA-H10N
Track ripped successfully
Conclusion: this track is CDDA with probability 94%
Tempfile successfully deleted.
06 -===- track 6 in drive HL-DT-STDVDRAM GSA-H10N
Track ripped successfully
Conclusion: this track is MPEG with probability 95%
Tempfile successfully deleted.
07 -===- track 7 in drive HL-DT-STDVDRAM GSA-H10N
Track ripped successfully
Conclusion: this track is CDDA with probability 100%
Tempfile successfully deleted.
08 -===- track 8 in drive HL-DT-STDVDRAM GSA-H10N
Track ripped successfully
Conclusion: this track is CDDA with probability 100%
Tempfile successfully deleted.
09 -===- track 9 in drive HL-DT-STDVDRAM GSA-H10N
Track ripped successfully
Conclusion: this track is CDDA with probability 76%
Tempfile successfully deleted.
10 -===- track 10 in drive HL-DT-STDVDRAM GSA-H10N
Track ripped successfully
Conclusion: this track is CDDA with probability 43%
Tempfile successfully deleted.
11 -===- track 11 in drive HL-DT-STDVDRAM GSA-H10N
Track ripped successfully
Conclusion: this track is CDDA with probability 87%
Tempfile successfully deleted.
12 -===- track 12 in drive HL-DT-STDVDRAM GSA-H10N
Track ripped successfully
Conclusion: this track is CDDA with probability 76%
Tempfile successfully deleted.
13 -===- track 13 in drive HL-DT-STDVDRAM GSA-H10N
Track ripped successfully
Conclusion: this track is CDDA with probability 87%
Tempfile successfully deleted.
14 -===- track 14 in drive HL-DT-STDVDRAM GSA-H10N
Track ripped successfully
Conclusion: this track is CDDA with probability 99%
Tempfile successfully deleted.
15 -===- track 15 in drive HL-DT-STDVDRAM GSA-H10N
Track ripped successfully
Conclusion: this track is CDDA with probability 100%
Tempfile successfully deleted.
16 -===- track 16 in drive HL-DT-STDVDRAM GSA-H10N
Track ripped successfully
Conclusion: this track is CDDA with probability 43%
Tempfile successfully deleted.
17 -===- track 17 in drive HL-DT-STDVDRAM GSA-H10N
Track ripped successfully
Conclusion: this track is CDDA with probability 100%
Tempfile successfully deleted.
18 -===- track 18 in drive HL-DT-STDVDRAM GSA-H10N
Track ripped successfully
Conclusion: this track is CDDA with probability 87%
Tempfile successfully deleted.
Finished at: пятница, 13. 02. 2009. - 23:58.37 (operation time: 0:18.48)
 
спектра наиболее подозрительных треков
Рипы со своих дисков, пиратки.
По всем вопросам пишите личное сообщение пользователю M0p94ok.
04:59
386
Нет комментариев. Ваш будет первым!