Поиск

(Jazz / Ethnic Jazz) Mukta - Haveli - 2005, FLAC (tracks+.cue), lossless

(Jazz / Ethnic Jazz) Mukta - Haveli - 2005, FLAC (tracks+.cue), lossless
Треклист:
Mukta - Haveli
Жанр: Jazz / Ethnic Jazz
Лейбл: WSM
Год выпуска : 2005
Аудио кодек: FLAC
Тип рипа: tracks+.cue
Битрейт аудио: lossless
Продолжительность: 00:54:33
Признательность за рип: dtromp
Трэклист:

1. Haveli (4:41)
2. Odalisk (4:19)
3. Belly dance (4:48)
4. Passing moons (6:14)
5. Kohar (4:06)
6. Night overture (5:22)
7. Seven voyages (7:09)
8. Sunset at Sohna (4:41)
9. Magic horse part 1 (2:31)
10. Magic horse part 2 (4:21)
11. Fraction (4:05)
12. Blue dinarzade for anja (2:16)
 
EAC
Exact Audio Copy V0.99 prebeta 4 from 23. January 2008
EAC extraction logfile from 11. February 2009, 11:21
Mukta / Haveli
Used drive : _NEC DVD_RW ND-3500AG Adapter: 0 ID: 1
Read mode : Secure
Utilize accurate stream : Yes
Defeat audio cache : Yes
Make use of C2 pointers : No
Read offset correction : 48
Overread into Lead-In and Lead-Out : No
Fill up missing offset samples with silence : Yes
Delete leading and trailing silent blocks : No
Null samples used in CRC calculations : Yes
Used interface : Native Win32 interface for Win NT & 2000
Gap handling : Appended to previous track
Used output format : User Defined Encoder
Selected bitrate : 128 kBit/s
Quality : High
Add ID3 tag : No
Command line compressor : C:\Program Files\FLAC\flac.exe
Additional command line options : -8 -V -T "ARTIST=%a" -T "TITLE=%t" -T "ALBUM=%g" -T "DATE=%y" -T "TRACKNUMBER=%n" -T "GENRE=%m" -T "COMMENT=EAC FLAC -8" %s
TOC of the extracted CD
Track | Start | Length | Start sector | End sector
---------------------------------------------------------
1 | 0:00.00 | 4:41.07 | 0 | 21081
2 | 4:41.07 | 4:19.67 | 21082 | 40573
3 | 9:00.74 | 4:48.31 | 40574 | 62204
4 | 13:49.30 | 6:14.26 | 62205 | 90280
5 | 20:03.56 | 4:06.21 | 90281 | 108751
6 | 24:10.02 | 5:22.36 | 108752 | 132937
7 | 29:32.38 | 7:09.55 | 132938 | 165167
8 | 36:42.18 | 4:41.56 | 165168 | 186298
9 | 41:23.74 | 2:31.65 | 186299 | 197688
10 | 43:55.64 | 4:21.43 | 197689 | 217306
11 | 48:17.32 | 4:05.58 | 217307 | 235739
12 | 52:23.15 | 2:16.35 | 235740 | 245974
Track 1
Filename P:\DL temp\Mukta - Haveli (2005) [FLAC]\01 - Haveli.wav
Pre-gap length 0:00:02.00
Peak level 100.0 %
Track quality 100.0 %
Test CRC C1A65D07
Copy CRC C1A65D07
Accurately ripped (confidence 3) [19FA1EB2]
Copy OK
Track 2
Filename P:\DL temp\Mukta - Haveli (2005) [FLAC]\02 - Odalisk.wav
Peak level 100.0 %
Track quality 100.0 %
Test CRC 431F26BC
Copy CRC 431F26BC
Accurately ripped (confidence 3) [3A43C9C5]
Copy OK
Track 3
Filename P:\DL temp\Mukta - Haveli (2005) [FLAC]\03 - Belly dance.wav
Pre-gap length 0:00:01.28
Peak level 100.0 %
Track quality 100.0 %
Test CRC E76619EA
Copy CRC E76619EA
Accurately ripped (confidence 3) [DF5F386B]
Copy OK
Track 4
Filename P:\DL temp\Mukta - Haveli (2005) [FLAC]\04 - Passing moons.wav
Pre-gap length 0:00:02.96
Peak level 100.0 %
Track quality 100.0 %
Test CRC A33290C3
Copy CRC A33290C3
Accurately ripped (confidence 3) [6AB3DE37]
Copy OK
Track 5
Filename P:\DL temp\Mukta - Haveli (2005) [FLAC]\05 - Kohar.wav
Pre-gap length 0:00:01.64
Peak level 100.0 %
Track quality 100.0 %
Test CRC 8CFEAD2A
Copy CRC 8CFEAD2A
Accurately ripped (confidence 3) [C7883D94]
Copy OK
Track 6
Filename P:\DL temp\Mukta - Haveli (2005) [FLAC]\06 - Night overture.wav
Pre-gap length 0:00:02.00
Peak level 100.0 %
Track quality 100.0 %
Test CRC 67D72923
Copy CRC 67D72923
Accurately ripped (confidence 3) [819485B3]
Copy OK
Track 7
Filename P:\DL temp\Mukta - Haveli (2005) [FLAC]\07 - Seven voyages.wav
Pre-gap length 0:00:02.00
Peak level 100.0 %
Track quality 100.0 %
Test CRC 0F4D648F
Copy CRC 0F4D648F
Accurately ripped (confidence 3) [B372787E]
Copy OK
Track 8
Filename P:\DL temp\Mukta - Haveli (2005) [FLAC]\08 - Sunset at Sohna.wav
Peak level 100.0 %
Track quality 100.0 %
Test CRC 2EF22427
Copy CRC 2EF22427
Accurately ripped (confidence 3) [DCDD1CB8]
Copy OK
Track 9
Filename P:\DL temp\Mukta - Haveli (2005) [FLAC]\09 - Magic horse part 1.wav
Pre-gap length 0:00:02.12
Peak level 100.0 %
Track quality 100.0 %
Test CRC B28DD31B
Copy CRC B28DD31B
Accurately ripped (confidence 3) [106BE9F1]
Copy OK
Track 10
Filename P:\DL temp\Mukta - Haveli (2005) [FLAC]\10 - Magic horse part 2.wav
Peak level 100.0 %
Track quality 100.0 %
Test CRC F626BE1C
Copy CRC F626BE1C
Accurately ripped (confidence 3) [F5DD245D]
Copy OK
Track 11
Filename P:\DL temp\Mukta - Haveli (2005) [FLAC]\11 - Fraction.wav
Pre-gap length 0:00:00.14
Peak level 100.0 %
Track quality 100.0 %
Test CRC 17284638
Copy CRC 17284638
Accurately ripped (confidence 3) [0887D42A]
Copy OK
Track 12
Filename P:\DL temp\Mukta - Haveli (2005) [FLAC]\12 - Blue dinarzade for anja.wav
Peak level 95.5 %
Track quality 99.9 %
Test CRC 954A4673
Copy CRC 954A4673
Accurately ripped (confidence 3) [F141BEAD]
Copy OK
All tracks accurately ripped
No errors occurred
End of status report
 
.CUE
REM GENRE Jazz
REM DATE 2005
REM DISCID A30CCF0C
REM COMMENT "ExactAudioCopy v0.99pb4"
PERFORMER "Mukta"
TITLE "Haveli"
FILE "01 - Haveli.wav" WAVE
TRACK 01 AUDIO
TITLE "Haveli"
PERFORMER "Mukta"
INDEX 01 00:00:00
FILE "02 - Odalisk.wav" WAVE
TRACK 02 AUDIO
TITLE "Odalisk"
PERFORMER "Mukta"
INDEX 01 00:00:00
TRACK 03 AUDIO
TITLE "Belly dance"
PERFORMER "Mukta"
INDEX 00 04:18:46
FILE "03 - Belly dance.wav" WAVE
INDEX 01 00:00:00
TRACK 04 AUDIO
TITLE "Passing moons"
PERFORMER "Mukta"
INDEX 00 04:45:34
FILE "04 - Passing moons.wav" WAVE
INDEX 01 00:00:00
TRACK 05 AUDIO
TITLE "Kohar"
PERFORMER "Mukta"
INDEX 00 06:12:53
FILE "05 - Kohar.wav" WAVE
INDEX 01 00:00:00
TRACK 06 AUDIO
TITLE "Night overture"
PERFORMER "Mukta"
INDEX 00 04:04:21
FILE "06 - Night overture.wav" WAVE
INDEX 01 00:00:00
TRACK 07 AUDIO
TITLE "Seven voyages"
PERFORMER "Mukta"
INDEX 00 05:20:36
FILE "07 - Seven voyages.wav" WAVE
INDEX 01 00:00:00
FILE "08 - Sunset at Sohna.wav" WAVE
TRACK 08 AUDIO
TITLE "Sunset at Sohna"
PERFORMER "Mukta"
INDEX 01 00:00:00
TRACK 09 AUDIO
TITLE "Magic horse part 1"
PERFORMER "Mukta"
INDEX 00 04:39:47
FILE "09 - Magic horse part 1.wav" WAVE
INDEX 01 00:00:00
FILE "10 - Magic horse part 2.wav" WAVE
TRACK 10 AUDIO
TITLE "Magic horse part 2"
PERFORMER "Mukta"
INDEX 01 00:00:00
TRACK 11 AUDIO
TITLE "Fraction"
PERFORMER "Mukta"
INDEX 00 04:21:32
FILE "11 - Fraction.wav" WAVE
INDEX 01 00:00:00
FILE "12 - Blue dinarzade for anja.wav" WAVE
TRACK 12 AUDIO
TITLE "Blue dinarzade for anja"
PERFORMER "Mukta"
INDEX 01 00:00:00
Mukta - Invisible Worlds - 2008
По всем вопросам пишите личное сообщение пользователю M0p94ok.
05:01
250
Нет комментариев. Ваш будет первым!