Поиск

(Contemporary Jazz) Gérard Marais & Renaud Garcia-Fons - Free Songs - 1996, FLAC (image+.cue), lossless

(Contemporary Jazz) Gérard Marais & Renaud Garcia-Fons - Free Songs - 1996, FLAC (image+.cue), lossless
Треклист:
Gérard Marais & Renaud Garcia-Fons - Free Songs
Жанр: Contemporary Jazz
Год выпуска диска: 1996
Производитель диска: France (Label Hopi)
Аудио кодек: FLAC
Тип рипа: image+.cue
Битрейт аудио: lossless
Продолжительность: 52:18
Gérard Marais guitar
Renaud Garcia-Fons bass
1. Road to Sevilla
2. Guernica
3. Morning Hands
4. Song for Bosnia
5. Another Don
6. Painting
7. Ballad in Progress
8. Exodus
9. Monk from Aral
 
EAC Report
Exact Audio Copy V0.99 prebeta 4 from 23. January 2008
EAC extraction logfile from 28. May 2008, 23:05
Gérard Marais & Renaud Garcia-Fons / Free Songs
Used drive : TSSTcorpCD/DVDW SH-S182M Adapter: 2 ID: 0
Read mode : Secure
Utilize accurate stream : Yes
Defeat audio cache : Yes
Make use of C2 pointers : No
Read offset correction : 6
Overread into Lead-In and Lead-Out : No
Fill up missing offset samples with silence : Yes
Delete leading and trailing silent blocks : No
Null samples used in CRC calculations : Yes
Used interface : Installed external ASPI interface
Used output format : User Defined Encoder
Selected bitrate : 1024 kBit/s
Quality : High
Add ID3 tag : No
Command line compressor : C:\Program Files\Exact Audio Copy\FLAC\FLAC.EXE
Additional command line options : -6 -V -T "ARTIST=%a" -T "TITLE=%t" -T "ALBUM=%g" -T "DATE=%y" -T "TRACKNUMBER=%n" -T "GENRE=%m" -T "COMMENT=%e" %s -o %d
TOC of the extracted CD
Track | Start | Length | Start sector | End sector
---------------------------------------------------------
1 | 0:00.32 | 5:07.15 | 32 | 23071
2 | 5:07.47 | 11:41.13 | 23072 | 75659
3 | 16:48.60 | 4:52.62 | 75660 | 97621
4 | 21:41.47 | 2:12.43 | 97622 | 107564
5 | 23:54.15 | 6:17.60 | 107565 | 135899
6 | 30:12.00 | 4:52.40 | 135900 | 157839
7 | 35:04.40 | 8:53.05 | 157840 | 197819
8 | 43:57.45 | 5:41.47 | 197820 | 223441
9 | 49:39.17 | 2:38.73 | 223442 | 235364
Range status and errors
Selected range
Filename F:\z\Gérard Marais & Renaud Garcia-Fons - Free Songs.wav
Peak level 100.0 %
Range quality 100.0 %
Copy CRC 503A95EF
Copy OK
No errors occurred
AccurateRip summary
Track 1 not present in database
Track 2 not present in database
Track 3 not present in database
Track 4 not present in database
Track 5 not present in database
Track 6 not present in database
Track 7 not present in database
Track 8 not present in database
Track 9 not present in database
None of the tracks are present in the AccurateRip database
End of status report
Download available for power users only.
05:02
377
Нет комментариев. Ваш будет первым!