Поиск

(Bossa Nova) Stan Getz & Charlie Byrd - Jazz Samba (DCC) (1962) [FLAC, image+.cue, lossless]

(Bossa Nova) Stan Getz & Charlie Byrd - Jazz Samba (DCC) (1962) [FLAC, image+.cue, lossless]
Треклист:
Stan Getz & Charlie Byrd - Jazz Samba (DCC)
Жанр: Bossa Nova
Страна: USA
Год выпуска: 19??
Аудио кодек: FLAC
Тип рипа: image+.cue
Битрейт аудио: lossless
Продолжительность: 00:35:49
Трэклист:
01. Desafinado (5:54)
02. Samba Dees Days (3:37)
03. O Pato (2:34)
04. Samba Triste (4:49)
05. Samba de Uma Nota Sу (6:13)
06. E Luxo Sу (3:45)
07. Bahia [aka 'Baia'] (6:54)
08. Desafinado [45 rpm issue] (2:03)
Источник: нетлаб (спасибо yury_usa)
Доп. информация: mastered by Steve Hoffman
 
EAC log
Exact Audio Copy V0.99 prebeta 3 from 28. July 2007
EAC extraction logfile from 16. February 2008, 12:30
Stan Getz & Charlie Byrd / Jazz Samba
Used drive : HL-DT-STRW/DVD GCC-4241N Adapter: 1 ID: 0
Read mode : Secure
Utilize accurate stream : Yes
Defeat audio cache : No
Make use of C2 pointers : Yes
Read offset correction : 102
Overread into Lead-In and Lead-Out : No
Fill up missing offset samples with silence : Yes
Delete leading and trailing silent blocks : No
Null samples used in CRC calculations : No
Used interface : Native Win32 interface for Win NT & 2000
Used output format : User Defined Encoder
Selected bitrate : 768 kBit/s
Quality : High
Add ID3 tag : No
Command line compressor : C:\Program Files\Exact Audio Copy\FLAC\FLAC.EXE
Additional command line options : -6 -V -T "ARTIST=%a" -T "TITLE=%t" -T "ALBUM=%g" -T "DATE=%y" -T "TRACKNUMBER=%n" -T "GENRE=%m" -T "COMMENT=%e" %s -o %d
TOC of the extracted CD
Track | Start | Length | Start sector | End sector
---------------------------------------------------------
1 | 0:00.00 | 5:53.45 | 0 | 26519
2 | 5:53.45 | 3:36.70 | 26520 | 42789
3 | 9:30.40 | 2:34.00 | 42790 | 54339
4 | 12:04.40 | 4:48.50 | 54340 | 75989
5 | 16:53.15 | 6:13.15 | 75990 | 103979
6 | 23:06.30 | 3:45.15 | 103980 | 120869
7 | 26:51.45 | 6:54.35 | 120870 | 151954
8 | 33:46.05 | 2:02.40 | 151955 | 161144
Range status and errors
Selected range
Filename C:\Documents and Settings\User1\My Documents\My Music\Stan Getz & Charlie Byrd - Jazz Samba\Stan Getz & Charlie Byrd - Jazz Samba.wav
Peak level 96.5 %
Range quality 100.0 %
Copy CRC 5F5AA19F
Copy OK
No errors occurred
AccurateRip summary
Track 1 accurately ripped (confidence 1) [AFC109B7]
Track 2 accurately ripped (confidence 1) [DE3E9AE2]
Track 3 accurately ripped (confidence 1) [1A855F99]
Track 4 accurately ripped (confidence 1) [DDDAAC9A]
Track 5 accurately ripped (confidence 1) [C7DBB1A2]
Track 6 accurately ripped (confidence 1) [E18C5623]
Track 7 accurately ripped (confidence 1) [61F700A9]
Track 8 accurately ripped (confidence 1) [0994DCDE]
All tracks accurately ripped
End of status report
 
Accurip
[Verification date: 01/27/2009 12:49]
[Disc ID: 000b4136-004afdcc-5e086408]
Track [ CRC ] Status
01 [afc109b7] (10/10) Accurately ripped as in pressing(s) #1
02 [de3e9ae2] (10/10) Accurately ripped as in pressing(s) #1
03 [1a855f99] (10/10) Accurately ripped as in pressing(s) #1
04 [dddaac9a] (10/10) Accurately ripped as in pressing(s) #1
05 [c7dbb1a2] (10/10) Accurately ripped as in pressing(s) #1
06 [e18c5623] (10/10) Accurately ripped as in pressing(s) #1
07 [61f700a9] (10/10) Accurately ripped as in pressing(s) #1
08 [0994dcde] (10/10) Accurately ripped as in pressing(s) #1
Track [ CRC32 ]
-- [E2A039C9]
01 [410116CB]
02 [A5E9F0C7]
03 [20A3A9F0]
04 [40AD226A]
05 [8F612D3B]
06 [BD33A457]
07 [E735539B]
08 [8B4B22FB]
 
Audiochecker
AUDIOCHECKER v1.2 - by Dester - opdester@freemail.hu
~~~~~~~~~~~~~~~~~
01 -===- H:\! Audiochecker !\1962 - Jazz Samba - DCC\Stan Getz - Jazz Samba.flac
Extracted successfully
Conclusion: This track looks like CDDA with probability 99%
Download available for power users only.
05:02
231
Нет комментариев. Ваш будет первым!