Поиск

(Jazz) John Coltrane - A Love Supreme (20 Bit Remaster by Impulse '1995) - 1964, APE (image + .cue), lossless

(Jazz) John Coltrane - A Love Supreme (20 Bit Remaster by Impulse '1995) - 1964, APE (image + .cue), lossless
Треклист:
John Coltrane - A Love Supreme (20 Bit Remaster by Impulse '1995)
Жанр: Jazz
Год выпуска: 1964
Формат: APE (image + .cue)
Битрейт аудио: lossless
Продолжительность: 32:56
Трэклист:
1. Part 1: Acknowledgement (7:44)
2. Part 2: Resolution (7:22)
3. Part 3: Pursuance / Part 4: Psalm (17:50)
 
LOG
EAC extraction logfile from 21. February 2007, 17:40 for CD
John Coltrane / A Love Supreme
Used drive : PHILIPS DVD+-RW DVD8801 Adapter: 1 ID: 0
Read mode : Secure with NO C2, accurate stream, disable cache
Read offset correction : 618
Overread into Lead-In and Lead-Out : No
Used output format : Internal WAV Routines
44.100 Hz; 16 Bit; Stereo
Other options :
Fill up missing offset samples with silence : Yes
Delete leading and trailing silent blocks : No
Installed external ASPI interface
Range status and errors
Selected range
Filename C:\John Coltrane - A love supreme\John Coltrane - A Love Supreme.wav
Peak level 100.0 %
Range quality 100.0 %
CRC 26C67A9B
Copy OK
No errors occured
End of status report
 
CUETools log
[CUETools log; Date: 22.05.2016 11:09:18; Version: 2.0.9]
Pregap length 00:00:32.
[AccurateRip ID: 0003da94-000d4bc8-1c07c003] found.
Track [ CRC ] Status
01 [6475b025] (087/309) Accurately ripped
02 [364ec3ce] (088/311) Accurately ripped
03 [f42b99d3] (087/307) Accurately ripped
Offsetted by -681:
01 [cbac96a6] (017/309) Accurately ripped
02 [a300ff49] (018/311) Accurately ripped
03 [3c4a49f3] (018/307) Accurately ripped
Offsetted by -657:
01 [495571e2] (047/309) Accurately ripped
02 [0904d531] (047/311) Accurately ripped
03 [6258fef3] (046/307) Accurately ripped
Offsetted by 504:
01 [cc8b62b9] (002/309) Accurately ripped
02 [ad77c386] (002/311) Accurately ripped
03 [136072d3] (002/307) Accurately ripped
Offsetted by -6:
01 [2077f4ec] (021/309) No match but offset
02 [14ac04ef] (021/311) No match but offset
03 [eaa7ec93] (020/307) No match but offset
Track Peak [ CRC32 ] [W/O NULL] [ LOG ]
-- 99,9 [26C67A9B] [5A4EBB62] CRC32
01 88,1 [5E4EE391] [5F5C3C37]
02 99,9 [BF6CBAEC] [139D06F8]
03 99,9 [6C0D6AE8] [806327EF]
Приватный:
Нет (DHT включён)
Размер:
202.75 Мб (212,603,417 байт) » файлов: 12
Участники:
0 раздают, 0 качают (0 участников всего)
Внешние участники:
1 раздают, 0 качают (1 участников всего) [ Обновить ]
No seeders - write a personal message to user M0p94ok. Нет сидеров - пишите личное сообщение пользователю M0p94ok.
23:07
76
Нет комментариев. Ваш будет первым!