Поиск

(Free Jazz, Piano Jazz, New Improvisation) Misha Mengelberg - Four in One, Live In Holland`97, No Idea, Who`s Bridge, FLAC (image + .cue), lossless

Треклист:
Misha Mengelberg - Four in One, Live In Holland`97, No Idea, Who`s Bridge
Страна: EU
Жанр: Free Jazz, Piano Jazz, New Improvisation
Формат: FLAC (image + .cue)
Битрейт аудио: lossless
Трэклист:
Misha Mengelberg Quartet - Four in One
Год выпуска: 2001

Состав:
Misha Mengelberg, piano
Dave Douglas, trumpet
Brad Jones, bass
Han Bennink, percussion
01. Hypochristmutreefuzz 04:41
02. Reef 03:53
03. Kneebus 07:13
04. Die Berge schuetzen die Heimat 02:57
05. Four in One 04:46
06. Monk's Mood 08:02
07. Criss Cross 05:27
08. Blues after Piet 08:43
09. Kwela P'Kwana 05:24
10. We're Going out for Italian 05:48
11. Poor Weel 02:12
 
Отчет ЕАС
Exact Audio Copy V0.99 prebeta 3 from 28. July 2007
Отчёт EAC об извлечении, выполненном 2. января 2008, 13:15
Misha Mengelberg Quartet / Four in One
Дисковод: PLEXTOR DVDR PX-755A Adapter: 2 ID: 0
Режим чтения : Достоверность
Использование точного потока : Да
Отключение кэша аудио : Да
Использование указателей C2 : Нет
Коррекция смещения при чтении : 30
Способность читать области Lead-in и Lead-out : Нет
Заполнение пропущенных сэмплов тишиной : Да
Удаление блоков с тишиной в начале и конце : Нет
При вычислениях CRC использовались нулевые сэмплы : Нет
Интерфейс : Установленный внешний ASPI-интерфейс
Выходной формат : Внутренние WAV-операции
Формат сэмплов : 44.100 Гц; 16 бит; стерео
TOC извлечённого CD
Трек | Старт | Длительность | Начальный сектор | Конечный сектор
---------------------------------------------------------------------
1 | 0:00.00 | 4:41.22 | 0 | 21096
2 | 4:41.22 | 3:53.03 | 21097 | 38574
3 | 8:34.25 | 7:13.32 | 38575 | 71081
4 | 15:47.57 | 2:57.45 | 71082 | 84401
5 | 18:45.27 | 4:46.45 | 84402 | 105896
6 | 23:31.72 | 8:02.03 | 105897 | 142049
7 | 31:34.00 | 5:27.25 | 142050 | 166599
8 | 37:01.25 | 8:43.40 | 166600 | 205864
9 | 45:44.65 | 5:24.32 | 205865 | 230196
10 | 51:09.22 | 5:48.33 | 230197 | 256329
11 | 56:57.55 | 2:12.40 | 256330 | 266269
Характеристики диапазона извлечения и сообщения об ошибках
Выбранный диапазон
Имя файла D:\Мои документы\Моя музыка\Upload\Misha Mengelberg\Misha Mengelberg Quartet - Four in One\Misha Mengelberg Quartet - Four in One.wav
Пиковый уровень 100.0 %
Качество диапазона 100.0 %
CRC копии 30AF7147
Копирование... OK
Ошибок не произошло
Конец отчёта
 
TauAnalyzer
Misha Mengelberg Trio - Live In Holland`97

Год выпуска: 1997

Состав:
Misha Mengelberg, piano
Mats Gustafsson, saxophones, flute
Gert-Jan Prins, percussion, electronics

01. Vermits 33:19
02. Alhoewel 25:17
03. I`ve Told Every Little Star 06:03
 
Отчет ЕАС
Exact Audio Copy V0.99 prebeta 3 from 28. July 2007
Отчёт EAC об извлечении, выполненном 2. января 2008, 13:32
Misha Mengelberg Trio / Live In Holland`97
Дисковод: PLEXTOR DVDR PX-755A Adapter: 2 ID: 0
Режим чтения : Достоверность
Использование точного потока : Да
Отключение кэша аудио : Да
Использование указателей C2 : Нет
Коррекция смещения при чтении : 30
Способность читать области Lead-in и Lead-out : Нет
Заполнение пропущенных сэмплов тишиной : Да
Удаление блоков с тишиной в начале и конце : Нет
При вычислениях CRC использовались нулевые сэмплы : Нет
Интерфейс : Установленный внешний ASPI-интерфейс
Выходной формат : Внутренние WAV-операции
Формат сэмплов : 44.100 Гц; 16 бит; стерео
TOC извлечённого CD
Трек | Старт | Длительность | Начальный сектор | Конечный сектор
---------------------------------------------------------------------
1 | 0:00.00 | 33:19.10 | 0 | 149934
2 | 33:19.10 | 25:17.32 | 149935 | 263741
3 | 58:36.42 | 6:03.18 | 263742 | 290984
Характеристики диапазона извлечения и сообщения об ошибках
Выбранный диапазон
Имя файла D:\Мои документы\Моя музыка\Upload\Misha Mengelberg\Misha Mengelberg Trio - Live In Holland`97\Misha Mengelberg Trio - Live In Holland`97.wav
Пиковый уровень 100.0 %
Качество диапазона 100.0 %
CRC копии 2BF81F57
Копирование... OK
Ошибок не произошло
Конец отчёта
 
TauAnalyzer
Misha Mengelberg Trio - No Idea
Год выпуска: 1998

Состав:
Misha Mengelberg, piano
Greg Cohen, double bass
Joey Baron, drums
01. No Idea 08:04
02. Begin The Beguine 08:34
03. You Don't Know What Love Is 07:00
04. House Party Starting 07:19
05. I'm Getting Sentimental Over You 07:11
06. The Mooche 05:54
07. September Song 04:41
08. Someone To Watch Over Me 06:19
 
Отчет ЕАС
Exact Audio Copy V0.99 prebeta 3 from 28. July 2007
Отчёт EAC об извлечении, выполненном 2. января 2008, 12:55
Misha Mengelberg Trio / No Idea
Дисковод: PLEXTOR DVDR PX-755A Adapter: 2 ID: 0
Режим чтения : Достоверность
Использование точного потока : Да
Отключение кэша аудио : Да
Использование указателей C2 : Нет
Коррекция смещения при чтении : 30
Способность читать области Lead-in и Lead-out : Нет
Заполнение пропущенных сэмплов тишиной : Да
Удаление блоков с тишиной в начале и конце : Нет
При вычислениях CRC использовались нулевые сэмплы : Нет
Интерфейс : Установленный внешний ASPI-интерфейс
Выходной формат : Внутренние WAV-операции
Формат сэмплов : 44.100 Гц; 16 бит; стерео
TOC извлечённого CD
Трек | Старт | Длительность | Начальный сектор | Конечный сектор
---------------------------------------------------------------------
1 | 0:00.00 | 8:04.10 | 0 | 36309
2 | 8:04.10 | 8:34.32 | 36310 | 74891
3 | 16:38.42 | 7:00.40 | 74892 | 106431
4 | 23:39.07 | 7:19.65 | 106432 | 139421
5 | 30:58.72 | 7:11.33 | 139422 | 171779
6 | 38:10.30 | 5:54.47 | 171780 | 198376
7 | 44:05.02 | 4:41.70 | 198377 | 219521
8 | 48:46.72 | 6:19.30 | 219522 | 247976
Характеристики диапазона извлечения и сообщения об ошибках
Выбранный диапазон
Имя файла D:\Мои документы\Моя музыка\Upload\Misha Mengelberg\Misha Mengelberg Trio - No Idea\Misha Mengelberg Trio - No Idea.wav
Пиковый уровень 98.9 %
Качество диапазона 99.9 %
CRC копии A3000491
Копирование... OK
Ошибок не произошло
Конец отчёта
 
TauAnalyzer
На седьмом треке TauAnalyzer глюкнул и отказался воспринимать его как CDDA. Поэтому прикладываю спектрограмму этого трека:
 
September Song
Misha Mengelberg Trio - Who's Bridge

Год выпуска: 1994

Состав:
Misha Mengelberg, piano
Brad Jones, double bass
Joey Baron, drums
01. Rollo II 05:11
02. A Bit Nervous 05:05
03. Rumbone 04:39
04. Romantic Jump of Hares 05:43
05. Gare Guillemans 06:18
06. Crocodile Tear 04:23
07. Rollo III 06:01
08. Peer's Counting Song 05:57
09. Elevator III 04:35
10. Who's Bridge 04:41
11. Almost, Almost 07:04
 
Отчет ЕАС
Exact Audio Copy V0.99 prebeta 3 from 28. July 2007
Отчёт EAC об извлечении, выполненном 2. января 2008, 13:05
Misha Mengelberg Trio / Who's Bridge
Дисковод: PLEXTOR DVDR PX-755A Adapter: 2 ID: 0
Режим чтения : Достоверность
Использование точного потока : Да
Отключение кэша аудио : Да
Использование указателей C2 : Нет
Коррекция смещения при чтении : 30
Способность читать области Lead-in и Lead-out : Нет
Заполнение пропущенных сэмплов тишиной : Да
Удаление блоков с тишиной в начале и конце : Нет
При вычислениях CRC использовались нулевые сэмплы : Нет
Интерфейс : Установленный внешний ASPI-интерфейс
Выходной формат : Внутренние WAV-операции
Формат сэмплов : 44.100 Гц; 16 бит; стерео
TOC извлечённого CD
Трек | Старт | Длительность | Начальный сектор | Конечный сектор
---------------------------------------------------------------------
1 | 0:00.00 | 5:11.27 | 0 | 23351
2 | 5:11.27 | 5:05.18 | 23352 | 46244
3 | 10:16.45 | 4:39.41 | 46245 | 67210
4 | 14:56.11 | 5:43.03 | 67211 | 92938
5 | 20:39.14 | 6:18.12 | 92939 | 121300
6 | 26:57.26 | 4:23.68 | 121301 | 141093
7 | 31:21.19 | 6:01.30 | 141094 | 168198
8 | 37:22.49 | 5:57.58 | 168199 | 195031
9 | 43:20.32 | 4:35.55 | 195032 | 215711
10 | 47:56.12 | 4:41.21 | 215712 | 236807
11 | 52:37.33 | 7:04.47 | 236808 | 268654
Характеристики диапазона извлечения и сообщения об ошибках
Выбранный диапазон
Имя файла D:\Мои документы\Моя музыка\Upload\Misha Mengelberg\Misha Mengelberg Trio - Who's Bridge\Misha Mengelberg Trio - Who's Bridge.wav
Пиковый уровень 99.7 %
Качество диапазона 100.0 %
CRC копии 26C17251
Копирование... OK
Ошибок не произошло
Конец отчёта
 
TauAnalyzer
Дополнительная информация:
 
Кто такой Миша Менгельберг
Миша МЕНГЕЛЬБЕРГ (Misha Mengelberg) - Нидерланды
Пианист Миша Менгельберг, лидер голландского ансамбля ICP Orchestra, известен своей ролью в развитии новой музыки, которая начала возникать в Нидерландах под влиянием джаза в 1960-ых. Менгельберг начал заниматься импровизацией в 60-ые и, благодаря его совершенному, отличительному стилю, стал считаться одним из главных джазовых пианистов. Несмотря на успешную карьеру, которая начала складываться еще до его работы над альбомом Эрика Долфи Last Date и продолжалась в течение многих последующих десятилетий, имя Миши Менгельберга известно не только среди любителей авангардного джаза, но и среди поклонников джаза вообще.
Миша Менгельберг родился в 1935 в Киеве в музыкальной семье - его мать была арфисткой, отец - известным пианистом и дирижером. Когда политический климат вокруг них стал откровенно враждебным, семья эмигрировала в Амстердам, где он и сегодня живет и преподает в Консерватории Sweelinck. Миша написал свою первую пьесу для фортепьяно в четыре года и с тех пор много сочинил в области джаза и классики. Влияние на него оказали джазовые пианисты Телониус Монк (Thelonious Monk) и Эрби Николс (Herbie Nichols), композитор Джон Кейдж, чьи лекции он слушал в Дармштадте в 1958, и абсурдно-художественное движение Fluxus, с которым он взаимодействовал в 1960-ых.
Менгельберг закончил Королевскую Консерваторию в Гааге в 1964. В тот же год он принял участие в записи альбома Эрика Долфи "Last Date". На этом альбоме также появляется барабанщик Хан Беннинк, с которым Миша до сих пор играет в дуэте.
В 1966 квартет Менгельберга (The Misja Mengelberg Quartet) появился на Ньюпортском Джазовом Фестивале в США. В следующем году Менгельберг, Беннинк и Виллем Бреукер (Willem Breuker) основали Instant Composers Pool, поворотный пункт в развитии независимой голландской импровизационной музыки, который ориентировался на джаз, но не ограничивал себя каким-то определенным стилем или эстетикой. В начале 70-ых произошел раскол в ICP, часть музыкантов остались с Менгельбергом (the ICP Orchestra), а часть с Бреукером (Willem Breuker Kollektief).
За десятилетия Менгельберг сотрудничал со многими лучшими исполнителями европейского авангарда и американского фри-джаза. Он был участником голландской группы, которая играла с Сесилом Тэйлором в 1967 (в то же самое время он участвовал в абсурдистском театре музыки), играл с ведущими британскими, немецкими и другими европейскими исполнителями. В 1970-ых Менгельберг работал арт-директором объединения STEIM (Studio for Electro-Instrumental Music), служил первым председателем голландского союза музыкантов-импровизаторов BIM и начал руководить Instant Composer's Pool Orchestra, который был и остается одним из лучших творческих джазовых оркестров в течение трех десятилетий.
В 80-ых Менгельберг представил много музыкально-театральных проектов, исследуя музыку Эрби Николса, Телениуса Монка и Дюка Эллингтона. Наряду с Бреукером, он сыграл значительную роль в создании голландского "музыкального театра", который включал большие дозы абсурда и музыкальной и театральной импровизации.
В настоящее время Менгельберг продолжает руководить Оркестром ICP, в котором играют лучшие музыканты Голландии: барабанщик Хан Беннинк, духовики Аб Баарс и Майкл Мур, тромбонист Уолтер Вирбос, виолончелист Тристан Хонсинджер и басист Эрнст Глерум. Эта группа служит центром воплощения и реализации всех интересов Менгельберга: композиция, импровизация и музыкальный театр.
Рипы сделаны мной с CD-R. Сканов обложек не имею.
Приватный:
Нет (DHT включён)
Размер:
1.08 Гб (1,161,213,730 байт) » файлов: 12
Участники:
0 раздают, 0 качают (0 участников всего)
Внешние участники:
1 раздают, 0 качают (1 участников всего) [ Обновить ]
Есть вопросы - пишите личное сообщение пользователю M0p94ok.
23:08
70
Нет комментариев. Ваш будет первым!