Поиск

(Free Jazz/Avant-Garde Jazz) Anthony Braxton, Chick Corea, David Holland, Barry Altschul - Circle (2CD) - 1972, FLAC (tracks), lossless

Треклист:
Anthony Braxton, Chick Corea, David Holland, Barry Altschul - Circle (2CD)
Страна: USA
Жанр: Free Jazz/Avant-Garde Jazz
Год выпуска: 1972
Формат: FLAC (tracks)
Битрейт аудио: lossless
Продолжительность: 1:35:09
Трэклист:
Disk 1
1. Nefertiti (Wayne Shorter) 19:13
2. Song For The Newborn (David Holland) 6:49
3. Duet (Chick Corea/Anthony Braxton) 10:31
4. Lockout Farm (Barry Altschul)
73 Deg. Kalvin (Variation-3) (Anthony Braxton) 16:06
Disk 2
1. Toy Room - Q & A (David Holland) 24:40
2. No Greater Love (Marty Synes/Ishan Jones) 17:37
Доп. информация: Anthony Braxton - reeds, percussion
Chick Corea - piano
David Holland - bass, cello
Barry Altschul - percussion
Recorded February 21, 1971, Maison de I'O.R.T.F., Paris
Engineer: Jean Deloron / Design: B & B Wojirsch / Produced by Manfred Richer
ECM 1018/19
Полный scan обложек, cue файлы.
Дополнительная информация и самплы: http://www.amazon.com/gp/product/B00000DTE4/103-4457863-0389447?v=glance&n=5174
Раздача возобновлена (перезалито) по просьбе уважаемого sasha4100.
 
Отчёт EAC
EAC extraction logfile from 25. March 2005, 22:53 for CD
Circle / Paris - Concert, CD1
Used drive : MATSHITAUJDA745 DVD/CDRW Adapter: 2 ID: 0
Read mode : Secure with NO C2, accurate stream, disable cache
Read offset correction : 102
Overread into Lead-In and Lead-Out : No
Used output format : Internal WAV Routines
44.100 Hz; 16 Bit; Stereo
Other options :
Fill up missing offset samples with silence : Yes
Delete leading and trailing silent blocks : No
Installed external ASPI interface
Track 1
Filename C:\Documents and Settings\ymilner.DAN\My Documents\Audio\Anthony Braxton, Chick Corea, David Holland, Barry Altschul - Circle (1972)[FLAC](2CD)\disk1\01 - Nefertiti .wav
Pre-gap length 0:00:02.00
Peak level 73.0 %
Track quality 100.0 %
Test CRC C6EE0CBD
Copy CRC C6EE0CBD
Copy OK
Track 2
Filename C:\Documents and Settings\ymilner.DAN\My Documents\Audio\Anthony Braxton, Chick Corea, David Holland, Barry Altschul - Circle (1972)[FLAC](2CD)\disk1\02 - Song For The Newborn .wav
Peak level 64.5 %
Track quality 100.0 %
Test CRC 916807DF
Copy CRC 916807DF
Copy OK
Track 3
Filename C:\Documents and Settings\ymilner.DAN\My Documents\Audio\Anthony Braxton, Chick Corea, David Holland, Barry Altschul - Circle (1972)[FLAC](2CD)\disk1\03 - Duet .wav
Pre-gap length 0:00:08.04
Peak level 62.2 %
Track quality 100.0 %
Test CRC 5F4CB07E
Copy CRC 5F4CB07E
Copy OK
Track 4
Filename C:\Documents and Settings\ymilner.DAN\My Documents\Audio\Anthony Braxton, Chick Corea, David Holland, Barry Altschul - Circle (1972)[FLAC](2CD)\disk1\04 - Lookout Farm , 73 Kelvin (Variation-3) .wav
Pre-gap length 0:00:00.01
Peak level 74.1 %
Track quality 100.0 %
Test CRC D20918AF
Copy CRC D20918AF
Copy OK
No errors occured
End of status report
EAC extraction logfile from 25. March 2005, 23:23 for CD
Circle / Paris - Concert, CD2
Used drive : MATSHITAUJDA745 DVD/CDRW Adapter: 2 ID: 0
Read mode : Secure with NO C2, accurate stream, disable cache
Read offset correction : 102
Overread into Lead-In and Lead-Out : No
Used output format : Internal WAV Routines
44.100 Hz; 16 Bit; Stereo
Other options :
Fill up missing offset samples with silence : Yes
Delete leading and trailing silent blocks : No
Installed external ASPI interface
Track 1
Filename C:\Documents and Settings\ymilner.DAN\My Documents\Audio\Anthony Braxton, Chick Corea, David Holland, Barry Altschul - Circle (1972)[FLAC](2CD)\disk2\01 - Toy Room - Q & A .wav
Pre-gap length 0:00:02.00
Peak level 94.4 %
Track quality 100.0 %
Test CRC 560245B3
Copy CRC 560245B3
Copy OK
Track 2
Filename C:\Documents and Settings\ymilner.DAN\My Documents\Audio\Anthony Braxton, Chick Corea, David Holland, Barry Altschul - Circle (1972)[FLAC](2CD)\disk2\02 - No Greater Love .wav
Pre-gap length 0:00:00.06
Peak level 74.4 %
Track quality 99.9 %
Test CRC 5C229E84
Copy CRC 5C229E84
Copy OK
No errors occured
End of status report
Приватный:
Нет (DHT включён)
Размер:
499.54 Мб (523,802,976 байт) » файлов: 28
Участники:
0 раздают, 0 качают (0 участников всего)
Внешние участники:
3 раздают, 1 качают (4 участников всего) [ Обновить ]
Есть вопросы - пишите личное сообщение пользователю M0p94ok.
23:09
52
Нет комментариев. Ваш будет первым!