Поиск

(Avant-Garde Jazz, Free Jazz) Albert Ayler & Don Cherry - Vibrations (1964), FLAC (tracks+.cue) lossless

(Avant-Garde Jazz, Free Jazz) Albert Ayler & Don Cherry - Vibrations (1964), FLAC (tracks+.cue) lossless
Треклист:


Albert Ayler & Don Cherry - Vibrations (1964)
Жанр: free jazz
Год выпуска: 1964
Издатель (лейбл):1989, Freedom / FCD 41000
Формат: FLAC (tracks+.cue)
Битрейт аудио: lossless
Продолжительность 37`37
Источник: what.cd

tracks

1 Ghosts (2:04)
2 Children (6:50)
3 Holy Spirit (8:29)
4 Ghosts (7:58)
5 Vibrations (4:55)
6 Mothers (7:06)


 
.log
Exact Audio Copy V0.99 prebeta 5 from 4. May 2009
EAC extraction logfile from 22. May 2010, 3:42
Albert Ayler And Don Cherry / Vibrations
Used drive : HL-DT-STDVDRAM GSA-T20N Adapter: 1 ID: 0
Read mode : Secure
Utilize accurate stream : Yes
Defeat audio cache : Yes
Make use of C2 pointers : No
Read offset correction : 667
Overread into Lead-In and Lead-Out : No
Fill up missing offset samples with silence : Yes
Delete leading and trailing silent blocks : No
Null samples used in CRC calculations : Yes
Used interface : Native Win32 interface for Win NT & 2000
Gap handling : Appended to previous track
Used output format : User Defined Encoder
Selected bitrate : 768 kBit/s
Quality : High
Add ID3 tag : No
Command line compressor : C:\Program Files\Exact Audio Copy\FLAC\FLAC.EXE
Additional command line options : -6 -V -T "ARTIST=%a" -T "TITLE=%t" -T "ALBUM=%g" -T "DATE=%y" -T "TRACKNUMBER=%n" -T "GENRE=%m" -T "COMMENT=%e" %s -o %d
TOC of the extracted CD
Track | Start | Length | Start sector | End sector
---------------------------------------------------------
1 | 0:00.00 | 2:08.15 | 0 | 9614
2 | 2:08.15 | 6:53.00 | 9615 | 40589
3 | 9:01.15 | 8:30.65 | 40590 | 78904
4 | 17:32.05 | 7:58.28 | 78905 | 114782
5 | 25:30.33 | 4:59.67 | 114783 | 137274
6 | 30:30.25 | 7:06.48 | 137275 | 169272
Track 1
Filename F:\MUSIC\CDRIPS\Albert Ayler & Don Cherry - Vibrations[FLAC]\1.Ghosts.wav
Pre-gap length 0:00:02.00
Peak level 91.3 %
Track quality 100.0 %
Test CRC 9124C920
Copy CRC 9124C920
Accurately ripped (confidence 4) [31BF3A3F]
Copy OK
Track 2
Filename F:\MUSIC\CDRIPS\Albert Ayler & Don Cherry - Vibrations[FLAC]\2.Children.wav
Pre-gap length 0:00:02.67
Peak level 100.0 %
Track quality 100.0 %
Test CRC 2F8CBB20
Copy CRC 2F8CBB20
Accurately ripped (confidence 4) [B4E27DFA]
Copy OK
Track 3
Filename F:\MUSIC\CDRIPS\Albert Ayler & Don Cherry - Vibrations[FLAC]\3.Holy Spirit.wav
Pre-gap length 0:00:05.27
Peak level 87.7 %
Track quality 100.0 %
Test CRC 942782AA
Copy CRC 942782AA
Accurately ripped (confidence 4) [9E2D81A4]
Copy OK
Track 4
Filename F:\MUSIC\CDRIPS\Albert Ayler & Don Cherry - Vibrations[FLAC]\4.Ghosts (2).wav
Pre-gap length 0:00:04.65
Peak level 95.8 %
Track quality 100.0 %
Test CRC D27ACC93
Copy CRC D27ACC93
Accurately ripped (confidence 4) [5DCDE203]
Copy OK
Track 5
Filename F:\MUSIC\CDRIPS\Albert Ayler & Don Cherry - Vibrations[FLAC]\5.Vibrations.wav
Pre-gap length 0:00:04.08
Peak level 100.0 %
Track quality 100.0 %
Test CRC 521F88CE
Copy CRC 521F88CE
Accurately ripped (confidence 4) [9FDD4EF6]
Copy OK
Track 6
Filename F:\MUSIC\CDRIPS\Albert Ayler & Don Cherry - Vibrations[FLAC]\6.Mothers.wav
Pre-gap length 0:00:05.42
Peak level 76.1 %
Track quality 100.0 %
Test CRC 5E3C0159
Copy CRC 5E3C0159
Accurately ripped (confidence 4) [59C119F9]
Copy OK
All tracks accurately ripped
No errors occurred
End of status report
 
.cue
REM GENRE Jazz
REM DATE 1964
REM DISCID 3508D006
REM COMMENT "ExactAudioCopy v0.99pb5"
PERFORMER "Albert Ayler And Don Cherry"
TITLE "Vibrations"
FILE "1.Ghosts.wav" WAVE
TRACK 01 AUDIO
TITLE "1.Ghosts"
PERFORMER "Albert Ayler And Don Cherry"
FLAGS PRE
INDEX 01 00:00:00
TRACK 02 AUDIO
TITLE "2.Children"
PERFORMER "Albert Ayler And Don Cherry"
FLAGS PRE
INDEX 00 02:05:23
FILE "2.Children.wav" WAVE
INDEX 01 00:00:00
TRACK 03 AUDIO
TITLE "3.Holy Spirit"
PERFORMER "Albert Ayler And Don Cherry"
FLAGS PRE
INDEX 00 06:47:48
FILE "3.Holy Spirit.wav" WAVE
INDEX 01 00:00:00
TRACK 04 AUDIO
TITLE "4.Ghosts (2)"
PERFORMER "Albert Ayler And Don Cherry"
FLAGS PRE
INDEX 00 08:26:00
FILE "4.Ghosts (2).wav" WAVE
INDEX 01 00:00:00
TRACK 05 AUDIO
TITLE "5.Vibrations"
PERFORMER "Albert Ayler And Don Cherry"
FLAGS PRE
INDEX 00 07:54:20
FILE "5.Vibrations.wav" WAVE
INDEX 01 00:00:00
TRACK 06 AUDIO
TITLE "6.Mothers"
PERFORMER "Albert Ayler And Don Cherry"
FLAGS PRE
INDEX 00 04:54:25
FILE "6.Mothers.wav" WAVE
INDEX 01 00:00:00
 
.accurip
[CUETools log; Date: 09/07/12 01:38:45; Version: 2.1.2a]
[CTDB TOCID: anzQyIbczUrgNk87EMorZjc2X8M-] found.
[ CTDBID ] Status
[a7946772] (9/9) Accurately ripped
[AccurateRip ID: 00086629-002e5f79-3508d006] found.
Track [ CRC ] Status
01 [31bf3a3f] (07/09) Accurately ripped
02 [b4e27dfa] (07/09) Accurately ripped
03 [9e2d81a4] (07/09) Accurately ripped
04 [5dcde203] (07/09) Accurately ripped
05 [9fdd4ef6] (08/10) Accurately ripped
06 [59c119f9] (08/10) Accurately ripped
AccurateRip v2:
01 [a85cc9d3] (02/09) Accurately ripped
02 [d1e6887c] (02/09) Accurately ripped
03 [fd0f30d0] (02/09) Accurately ripped
04 [80f0f714] (02/09) Accurately ripped
05 [56c8d0cb] (02/10) Accurately ripped
06 [7e72b98d] (02/10) Accurately ripped
Track Peak [ CRC32 ] [W/O NULL] [ LOG ]
-- 100.0 [8788148E] [1FA9793C]
01 91.3 [9124C920] [DFD08152] CRC32
02 100.0 [2F8CBB20] [07A79642] CRC32
03 87.6 [942782AA] [38E66DF6] CRC32
04 95.8 [D27ACC93] [55699623] CRC32
05 100.0 [521F88CE] [ADE8E4D4] CRC32
06 76.1 [5E3C0159] [EB5A7B03] CRC32

другие релизы
Приватный:
Нет (DHT включён)
Размер:
245.19 Мб (257,101,012 байт) » файлов: 15
Участники:
0 раздают, 0 качают (0 участников всего)
Внешние участники:
14 раздают, 4 качают (18 участников всего) [ Обновить ]
No seeders - write a personal message to user M0p94ok. Нет сидеров - пишите личное сообщение пользователю M0p94ok.
23:06
70
Нет комментариев. Ваш будет первым!