Поиск

(Jazz) Ibrahim Electric - Meets Ray Anderson Again - 2007, FLAC (tracks+.cue), lossless

Треклист:
Ibrahim Electric - Meets Ray Anderson Again Жанр: Jazz
Год выпуска диска: 2007
Производитель диска: Denmark
Аудио кодек: FLAC
Тип рипа: tracks+.cue
Битрейт аудио: lossless
Продолжительность: 52:34
Трэклист:
1. Funkorific (8:58)
2. Splash (5:53)
3. Red Room (4:09)
4. Lobi (5:29)
5. Skip It (6:00)
6. En kold fra kassen (6:32)
7. Blue Balls (9:23)
8. Absinthe (6:10)
Доп. информация:
Концерт на Джазовом Фестивале в Копенгагене, ноябрь 2007-го года
Ray Anderson – trombon
Jeppe Tuxen - organ
Niclas Knudsen - guitar
Stefan Pasborg – drums
 
лог
Exact Audio Copy V0.99 prebeta 4 from 23. January 2008
EAC extraction logfile from 23. March 2008, 0:56
Ibrahim Electric / Meets Ray Anderson
Used drive : ASUS DRW-1814BL Adapter: 4 ID: 0
Read mode : Secure
Utilize accurate stream : Yes
Defeat audio cache : Yes
Make use of C2 pointers : No
Read offset correction : 6
Overread into Lead-In and Lead-Out : No
Fill up missing offset samples with silence : Yes
Delete leading and trailing silent blocks : No
Null samples used in CRC calculations : Yes
Used interface : Native Win32 interface for Win NT & 2000
Gap handling : Appended to previous track
Used output format : User Defined Encoder
Selected bitrate : 320 kBit/s
Quality : High
Add ID3 tag : No
Command line compressor : C:\Program Files (x86)\Exact Audio Copy\Flac\flac.exe
Additional command line options : -V -2 -T "artist=%a" -T "title=%t" -T "album=%g" -T "date=%y" -T "tracknumber=%n" -T "genre=%m" %s
TOC of the extracted CD
Track | Start | Length | Start sector | End sector
---------------------------------------------------------
1 | 0:00.00 | 8:58.02 | 0 | 40351
2 | 8:58.02 | 5:53.07 | 40352 | 66833
3 | 14:51.09 | 4:09.36 | 66834 | 85544
4 | 19:00.45 | 5:29.18 | 85545 | 110237
5 | 24:29.63 | 6:00.25 | 110238 | 137262
6 | 30:30.13 | 6:32.53 | 137263 | 166715
7 | 37:02.66 | 9:23.47 | 166716 | 208987
8 | 46:26.38 | 6:10.22 | 208988 | 236759
Track 1
Filename E:\MY RIPS\Ibrahim Electric - Meets Ray Anderson\01-Funkorific - 2007.wav
Pre-gap length 0:00:02.00
Peak level 99.4 %
Track quality 100.0 %
Test CRC 7971EBC9
Copy CRC 7971EBC9
Copy OK
Track 2
Filename E:\MY RIPS\Ibrahim Electric - Meets Ray Anderson\02-Splash - 2007.wav
Peak level 99.5 %
Track quality 100.0 %
Test CRC BFEFB3B2
Copy CRC BFEFB3B2
Copy OK
Track 3
Filename E:\MY RIPS\Ibrahim Electric - Meets Ray Anderson\03-Red Room - 2007.wav
Peak level 99.5 %
Track quality 100.0 %
Test CRC B1A784EC
Copy CRC B1A784EC
Copy OK
Track 4
Filename E:\MY RIPS\Ibrahim Electric - Meets Ray Anderson\04-Lobi - 2007.wav
Peak level 99.5 %
Track quality 100.0 %
Test CRC 047E9525
Copy CRC 047E9525
Copy OK
Track 5
Filename E:\MY RIPS\Ibrahim Electric - Meets Ray Anderson\05-Skip It - 2007.wav
Peak level 99.4 %
Track quality 100.0 %
Test CRC F3152823
Copy CRC F3152823
Copy OK
Track 6
Filename E:\MY RIPS\Ibrahim Electric - Meets Ray Anderson\06-En kold fra kassen - 2007.wav
Peak level 99.9 %
Track quality 100.0 %
Test CRC 9D1AE886
Copy CRC 9D1AE886
Copy OK
Track 7
Filename E:\MY RIPS\Ibrahim Electric - Meets Ray Anderson\07-Blue Balls - 2007.wav
Peak level 99.4 %
Track quality 100.0 %
Test CRC EECFE2A1
Copy CRC EECFE2A1
Copy OK
Track 8
Filename E:\MY RIPS\Ibrahim Electric - Meets Ray Anderson\08-Absinthe - 2007.wav
Peak level 99.9 %
Track quality 100.0 %
Test CRC 104C38F4
Copy CRC 104C38F4
Copy OK
No errors occurred
End of status report
Ibrahim Electric - Ibrahim Electric Meets Ray Anderson - 2005, FLAC (tracks+.cue), lossless
Приватный:
Нет (DHT включён)
Размер:
374.90 Мб (393,112,739 байт) » файлов: 16
Участники:
0 раздают, 0 качают (0 участников всего)
Внешние участники:
3 раздают, 1 качают (4 участников всего) [ Обновить ]
No seeders - write a personal message to user M0p94ok. Нет сидеров - пишите личное сообщение пользователю M0p94ok.
02:55
83
Нет комментариев. Ваш будет первым!