Поиск

(contemporary jazz) Triptych Myth (Tom Abbs / Cooper - Moore / Chad Taylor) - The Beautiful - 2005, FLAC (image+.cue), lossless

(contemporary jazz) Triptych Myth (Tom Abbs / Cooper - Moore / Chad Taylor) - The Beautiful - 2005, FLAC (image+.cue), lossless
Треклист:
Triptych Myth (Tom Abbs / Cooper - Moore / Chad Taylor) - The Beautiful
Жанр: contemporary jazz
Год выпуска диска: 2005
Производитель диска: USA (AUM Fidelity)
Аудио кодек: FLAC
Тип рипа: image+.cue
Битрейт аудио: lossless
Продолжительность: 48.22
Трэклист:
1 All Up In It
2 Frida K. The Beautiful
3 Trident
4 Spiraling Out
5 Pooch (For Wilber Morris)
6 A Time To
7 Last Minute Trip Part One
8 Last Minute Trip Part Two
9 Poppa's Gin In The Chicken Feed
10 Robinia Pseudoacacia
Доп. информация: Cooper-Moore - piano
Tom Abbs - bass
Chad Taylor - drums
Друзья! Убедительно призываю вас скачать ЭТО и послушать - музыка совершенно невообразимая. Этому трио удалось вознести уровень возможностей сочетания клавишных и ритм-секции до чуть ли не божественного уровня. Вторая композиция - Frida K The Beautiful - не устает поражать меня при каждом прослушивании - так еще никто не играл (ну по крайней мере мне не попадалось ничего подобного) - это блаженство, нега и абсолютное джазовое совершенство c чуть заметной примесью провокации.
 
eac log
Exact Audio Copy V0.99 prebeta 4 from 23. January 2008
Отчёт EAC об извлечении, выполненном 2. августа 2008, 19:09
Triptych Myth / The Beautiful
Дисковод: Optiarc DVD RW AD-7170A Adapter: 0 ID: 1
Режим чтения : Достоверность
Использование точного потока : Да
Отключение кэша аудио : Да
Использование указателей C2 : Нет
Коррекция смещения при чтении : 48
Способность читать области Lead-in и Lead-out : Нет
Заполнение пропущенных сэмплов тишиной : Да
Удаление блоков с тишиной в начале и конце : Нет
При вычислениях CRC использовались нулевые сэмплы : Нет
Интерфейс : Встроенный Win32-интерфейс для Win NT/2000
Выходной формат : Пользовательский кодировщик
Выбранный битрейт : 768 kBit/s
Качество : Высокий
Добавление ID3-тэга : Нет
Утилита сжатия : C:\Program Files\Exact Audio Copy\FLAC\FLAC.EXE
Дополнительные параметры : -6 -V -T "ARTIST=%a" -T "TITLE=%t" -T "ALBUM=%g" -T "DATE=%y" -T "TRACKNUMBER=%n" -T "GENRE=%m" -T "COMMENT=%e" %s -o %d
TOC извлечённого CD
Трек | Старт | Длительность | Начальный сектор | Конечный сектор
---------------------------------------------------------------------
1 | 0:00.00 | 4:53.43 | 0 | 22017
2 | 4:53.43 | 5:22.06 | 22018 | 46173
3 | 10:15.49 | 4:15.49 | 46174 | 65347
4 | 14:31.23 | 6:44.27 | 65348 | 95674
5 | 21:15.50 | 5:52.05 | 95675 | 122079
6 | 27:07.55 | 5:01.04 | 122080 | 144658
7 | 32:08.59 | 1:46.22 | 144659 | 152630
8 | 33:55.06 | 3:17.73 | 152631 | 167478
9 | 37:13.04 | 7:13.21 | 167479 | 199974
10 | 44:26.25 | 3:55.44 | 199975 | 217643
Характеристики диапазона извлечения и сообщения об ошибках
Выбранный диапазон
Имя файла C:\Music\Triptych Myth - The Beautiful.wav
Пиковый уровень 100.0 %
Качество диапазона 99.9 %
CRC копии BC4E159F
Копирование... OK
Ошибок не произошло
AccurateRip: сводка
Трек 1 нет в базе данных
Трек 2 нет в базе данных
Трек 3 нет в базе данных
Трек 4 нет в базе данных
Трек 5 нет в базе данных
Трек 6 нет в базе данных
Трек 7 нет в базе данных
Трек 8 нет в базе данных
Трек 9 нет в базе данных
Трек 10 нет в базе данных
Ни одного трека нет в базе AccurateRip
Конец отчёта
Приватный:
Нет (DHT включён)
Размер:
269.43 Мб (282,518,531 байт) » файлов: 3
Участники:
0 раздают, 0 качают (0 участников всего)
Внешние участники:
1 раздают, 0 качают (1 участников всего) [ Обновить ]
No seeders - write a personal message to user M0p94ok. Нет сидеров - пишите личное сообщение пользователю M0p94ok.
02:56
58
Нет комментариев. Ваш будет первым!