Поиск

(free-jazz) Peter Brotzmann Solo - Nothing To Say - 1996, FLAC (image+.cue), lossless

(free-jazz) Peter Brotzmann Solo - Nothing To Say - 1996, FLAC (image+.cue), lossless
Треклист:
Peter Brotzmann Solo - Nothing To Say
Жанр: free-jazz
Год выпуска диска: 1996
Производитель диска: Germany (FMP)
Аудио кодек: FLAC
Тип рипа: image+.cue
Битрейт аудио: lossless
Продолжительность: 75.03
Трэклист:
Peter Brotzmann Solo - Nothing To Say - a suite of breathless motion dedicated to Oscar Wilde
1. Nothing To Say (bass-sax)
2. Let's Walk From Fire Unto Fire (e-flat-clarinet)
3. Seven Stars In Still Water (bass-clarinet)
4. One That Stood Alone (tarogato)
5. Fair Wind Is Blowing From The Sea (alto-sax)
6. A Lying Tale (alto-sax)
7. There Is No Peace Under The Noon (tenor-sax)
8. A Heavy Creeping Shade (bass-sax)
9. The Sky Is Laced With Fitful Red (tarogato)
10. Have You Heard The News (e-flat-clarinet)
11. Love Makes People Good (alto-sax)
12. Simply A Born Artist (alto-sax)
Доп. информация:
 
eac log
Exact Audio Copy V0.99 prebeta 4 from 23. January 2008
Отчёт EAC об извлечении, выполненном 3. августа 2008, 15:01
Peter Brцtzmann / Nothing to say: a suite of breathless motion
Дисковод: Optiarc DVD RW AD-7170A Adapter: 0 ID: 1
Режим чтения : Достоверность
Использование точного потока : Да
Отключение кэша аудио : Да
Использование указателей C2 : Нет
Коррекция смещения при чтении : 48
Способность читать области Lead-in и Lead-out : Нет
Заполнение пропущенных сэмплов тишиной : Да
Удаление блоков с тишиной в начале и конце : Нет
При вычислениях CRC использовались нулевые сэмплы : Нет
Интерфейс : Встроенный Win32-интерфейс для Win NT/2000
Выходной формат : Пользовательский кодировщик
Выбранный битрейт : 768 kBit/s
Качество : Высокий
Добавление ID3-тэга : Нет
Утилита сжатия : C:\Program Files\Exact Audio Copy\FLAC\FLAC.EXE
Дополнительные параметры : -6 -V -T "ARTIST=%a" -T "TITLE=%t" -T "ALBUM=%g" -T "DATE=%y" -T "TRACKNUMBER=%n" -T "GENRE=%m" -T "COMMENT=%e" %s -o %d
TOC извлечённого CD
Трек | Старт | Длительность | Начальный сектор | Конечный сектор
---------------------------------------------------------------------
1 | 0:00.00 | 7:57.12 | 0 | 35786
2 | 7:57.12 | 6:43.00 | 35787 | 66011
3 | 14:40.12 | 5:18.48 | 66012 | 89909
4 | 19:58.60 | 4:45.47 | 89910 | 111331
5 | 24:44.32 | 2:48.05 | 111332 | 123936
6 | 27:32.37 | 3:44.38 | 123937 | 140774
7 | 31:17.00 | 8:09.22 | 140775 | 177471
8 | 39:26.22 | 4:27.60 | 177472 | 197556
9 | 43:54.07 | 8:05.63 | 197557 | 233994
10 | 51:59.70 | 6:32.15 | 233995 | 263409
11 | 58:32.10 | 11:00.62 | 263410 | 312971
12 | 69:32.72 | 5:30.50 | 312972 | 337771
Характеристики диапазона извлечения и сообщения об ошибках
Выбранный диапазон
Имя файла E:\EAC\Peter Brцtzmann - Nothing to say a suite of breathless motion.wav
Пиковый уровень 100.0 %
Качество диапазона 99.8 %
CRC копии BA09B884
Копирование... OK
Ошибок не произошло
AccurateRip: сводка
Трек 1 нет в базе данных
Трек 2 нет в базе данных
Трек 3 нет в базе данных
Трек 4 нет в базе данных
Трек 5 нет в базе данных
Трек 6 нет в базе данных
Трек 7 нет в базе данных
Трек 8 нет в базе данных
Трек 9 нет в базе данных
Трек 10 нет в базе данных
Трек 11 нет в базе данных
Трек 12 нет в базе данных
Ни одного трека нет в базе AccurateRip
Конец отчёта
Приватный:
Нет (DHT включён)
Размер:
351.72 Мб (368,804,745 байт) » файлов: 3
Участники:
0 раздают, 0 качают (0 участников всего)
Внешние участники:
1 раздают, 0 качают (1 участников всего) [ Обновить ]
No seeders - write a personal message to user M0p94ok. Нет сидеров - пишите личное сообщение пользователю M0p94ok.
02:57
69
Нет комментариев. Ваш будет первым!