Поиск

(Avantgarde Jazz, Free-Jazz, Free Improvisation) Peter Brotzmann and The Wild Mans Band - Three Rocks and a Pine - 1999 - 1999, FLAC (image+.cue), lossless

(Avantgarde Jazz, Free-Jazz, Free Improvisation) Peter Brotzmann and The Wild Mans Band - Three Rocks and a Pine - 1999 - 1999, FLAC (image+.cue), lossless
Треклист:
Peter Brotzmann and The Wild Mans Band - Three Rocks and a Pine - 1999
Жанр: Avantgarde Jazz, Free-Jazz, Free Improvisation
Год выпуска диска: 1999
Производитель диска: Denmark (Ninth World)
Аудио кодек: FLAC
Тип рипа: image+.cue
Битрейт аудио: lossless
Продолжительность: 64:45
Трэклист:
1. Western Messenger - 4:57
2. Yellow Fewer - 1:55
3. Volgograd - 3:15
4. Foliation - 2:49
5. Canned Beans - 4:25
6. The Four-Stroke - 13:06
7. The Scapegoat - 1:30
8. Clearance Sale - 0:28
9. Hat and Shoes - 6:22
10. Butterflies - 2:48
11. The Armadillo Walk - 9:16
12. Dirt Track Road - 10:09
13. Magnetism - 1:05
14. The Stalking-Horse Brözmann, Gustafsson ... 2:31
Проект, собственно, так и называется - The Wild Mans Band, но поскольку это инициатива Петера Брёцмана, я позволил себе включить его имя в название. Диск датский, музыканты наверное тоже, но не берусь утверждать. А вот одного музыканта все знают очень хорошо, даже неприлично говорить, что он швед. Да, - это сам Матс Густафссон! здесь он играет на тенор-саксе и на любимом баритон-саксафоне. дальше вполне понятный текст:
by Steven Loewy
This incarnation of The Wild Man's Band features the core of Brotzmann (on taragot, clarinet, and alto and tenor saxophones), Peter Ole Jorgensen (on drums), and Peter Friis Nielsen (on bass), with guest Mats Gustafsson (on tenor and baritone saxophones). As to be expected, this one burns hard, with the two reed players blowing fire into the music. Half of the tracks are less than four minutes apiece, but the intensity is so great throughout that the generously timed recording is difficult to absorb in one sitting. Some may find it all a touch self-indulgent, but there is no mistaking the incredible talent of every member of the quartet. This is clearly Brotzmann's show, with Gustafsson subservient to the elder's concept. Jorgensen and Nielsen do a magnificent job in support and on the front lines.
 
скрытый текст
Доп. информация: Exact Audio Copy V0.99 prebeta 4 from 23. January 2008
 
скрытый текст
Отчёт EAC об извлечении, выполненном 3. августа 2008, 19:16
The Wild Mans Band / Three Rocks And A Pine
Дисковод: TEAC DV-W518GM Adapter: 5 ID: 0
Режим чтения : Достоверность
Использование точного потока : Да
Отключение кэша аудио : Да
Использование указателей C2 : Нет
Комбинированное смещение чтения/записи : 6
Способность читать области Lead-in и Lead-out : Нет
Заполнение пропущенных сэмплов тишиной : Да
Удаление блоков с тишиной в начале и конце : Нет
При вычислениях CRC использовались нулевые сэмплы : Нет
Интерфейс : Встроенный Win32-интерфейс для Win NT/2000
Выходной формат : Внутренние WAV-операции
Формат сэмплов : 44.100 Гц; 16 бит; стерео
TOC извлечённого CD
Трек | Старт | Длительность | Начальный сектор | Конечный сектор
---------------------------------------------------------------------
1 | 0:00.00 | 4:57.72 | 0 | 22346
2 | 4:57.72 | 1:55.50 | 22347 | 31021
3 | 6:53.47 | 3:15.33 | 31022 | 45679
4 | 10:09.05 | 2:49.50 | 45680 | 58404
5 | 12:58.55 | 4:25.25 | 58405 | 78304
6 | 17:24.05 | 13:06.22 | 78305 | 137276
7 | 30:30.27 | 1:30.00 | 137277 | 144026
8 | 32:00.27 | 0:28.38 | 144027 | 146164
9 | 32:28.65 | 6:22.15 | 146165 | 174829
10 | 38:51.05 | 2:48.52 | 174830 | 187481
11 | 41:39.57 | 9:16.10 | 187482 | 229191
12 | 50:55.67 | 10:09.65 | 229192 | 274931
13 | 61:05.57 | 1:05.50 | 274932 | 279856
14 | 62:11.32 | 2:31.48 | 279857 | 291229
Характеристики диапазона извлечения и сообщения об ошибках
Выбранный диапазон
Имя файла D:\мои документы\The Wild Mans Band - Three Rocks And A Pine.wav
Пиковый уровень 100.0 %
Качество диапазона 100.0 %
CRC копии 8634DD1B
Копирование... OK
Ошибок не произошло
Конец отчёта
Приватный:
Нет (DHT включён)
Размер:
409.32 Мб (429,203,910 байт) » файлов: 3
Участники:
0 раздают, 0 качают (0 участников всего)
Внешние участники:
2 раздают, 1 качают (3 участников всего) [ Обновить ]
No seeders - write a personal message to user M0p94ok. Нет сидеров - пишите личное сообщение пользователю M0p94ok.
02:58
38
Нет комментариев. Ваш будет первым!