Поиск

(free-jazz) Peter Brotzmann / Friis Nielsen / Peeter Uuskyla - Medicina - 2003, FLAC (image+.cue), lossless

Треклист:
Peter Brotzmann / Friis Nielsen / Peeter Uuskyla - Medicina
Жанр: free-jazz
Год выпуска диска: 2003
Производитель диска: Canada (Atavistic)
Аудио кодек: FLAC
Тип рипа: image+.cue
Битрейт аудио: lossless
Продолжительность: 76.11
Трэклист:
1. Rocket Tango
2. One, Two, Three, Free
3. Artemisia
4. Justicia
5. Some Ghosts Step Out
6. Here And Now
7. Bones And Beans
8. Hard Times Blues
Доп. информация: Peter Brotzmann - alto & tenor saxophones, tarogato
Friis Nielsen - electric bass
Peeter Uuskyla - drums
 
eac log
Exact Audio Copy V0.99 prebeta 4 from 23. January 2008
Отчёт EAC об извлечении, выполненном 4. августа 2008, 2:58
Brцtzmann, Nielsen & Uuskyla / Medicina
Дисковод: Optiarc DVD RW AD-7170A Adapter: 0 ID: 1
Режим чтения : Достоверность
Использование точного потока : Да
Отключение кэша аудио : Да
Использование указателей C2 : Нет
Коррекция смещения при чтении : 48
Способность читать области Lead-in и Lead-out : Нет
Заполнение пропущенных сэмплов тишиной : Да
Удаление блоков с тишиной в начале и конце : Нет
При вычислениях CRC использовались нулевые сэмплы : Нет
Интерфейс : Встроенный Win32-интерфейс для Win NT/2000
Выходной формат : Пользовательский кодировщик
Выбранный битрейт : 768 kBit/s
Качество : Высокий
Добавление ID3-тэга : Нет
Утилита сжатия : C:\Program Files\Exact Audio Copy\FLAC\FLAC.EXE
Дополнительные параметры : -6 -V -T "ARTIST=%a" -T "TITLE=%t" -T "ALBUM=%g" -T "DATE=%y" -T "TRACKNUMBER=%n" -T "GENRE=%m" -T "COMMENT=%e" %s -o %d
TOC извлечённого CD
Трек | Старт | Длительность | Начальный сектор | Конечный сектор
---------------------------------------------------------------------
1 | 0:00.00 | 6:58.55 | 0 | 31404
2 | 6:58.55 | 9:44.73 | 31405 | 75277
3 | 16:43.53 | 9:55.74 | 75278 | 119976
4 | 26:39.52 | 8:53.06 | 119977 | 159957
5 | 35:32.58 | 14:49.69 | 159958 | 226701
6 | 50:22.52 | 6:03.28 | 226702 | 253954
7 | 56:26.05 | 6:23.04 | 253955 | 282683
8 | 62:49.09 | 13:22.10 | 282684 | 342843
Характеристики диапазона извлечения и сообщения об ошибках
Выбранный диапазон
Имя файла E:\EAC\Brцtzmann, Nielsen & Uuskyla - Medicina.wav
Пиковый уровень 98.8 %
Качество диапазона 99.9 %
CRC копии 855AF1AD
Копирование... OK
Ошибок не произошло
AccurateRip: сводка
Трек 1 нет в базе данных
Трек 2 нет в базе данных
Трек 3 нет в базе данных
Трек 4 нет в базе данных
Трек 5 нет в базе данных
Трек 6 нет в базе данных
Трек 7 нет в базе данных
Трек 8 нет в базе данных
Ни одного трека нет в базе AccurateRip
Конец отчёта
Приватный:
Нет (DHT включён)
Размер:
487.06 Мб (510,720,047 байт) » файлов: 3
Участники:
0 раздают, 0 качают (0 участников всего)
Внешние участники:
2 раздают, 1 качают (3 участников всего) [ Обновить ]
No seeders - write a personal message to user M0p94ok. Нет сидеров - пишите личное сообщение пользователю M0p94ok.
02:59
47
Нет комментариев. Ваш будет первым!