Поиск

(Jazz) Audun Kleive - Bitt - 1997, FLAC (image+.cue), lossless

(Jazz) Audun Kleive - Bitt - 1997, FLAC (image+.cue), lossless
Треклист:
Audun Kleive - Bitt
Жанр: Jazz
Год выпуска диска: 1997
Производитель диска: Norway
Аудио кодек: FLAC
Тип рипа: image+.cue
Битрейт аудио: lossless
Продолжительность: 51:00
All voices and instruments improvised, twisted and performed by Audun Kleive
plus
Terje Rypdal guitar
Janny Sjo electric bass
Bugge Wesseltoft resonant offbeats
Never Thought I Would
Our Misforgotten Past
Like a Prayer / Checkin' the Fast Track / Chaos Beatz
Pulse
Salute
Contribution to That Jumpin' World
Driveline
Crowded Beatz
 
EAC Report
Exact Audio Copy V0.99 prebeta 4 from 23. January 2008
EAC extraction logfile from 15. June 2008, 15:36
Audun Kleive / Bitt
Used drive : TSSTcorpCD/DVDW SH-S182M Adapter: 2 ID: 0
Read mode : Secure
Utilize accurate stream : Yes
Defeat audio cache : Yes
Make use of C2 pointers : No
Read offset correction : 6
Overread into Lead-In and Lead-Out : No
Fill up missing offset samples with silence : Yes
Delete leading and trailing silent blocks : No
Null samples used in CRC calculations : No
Used interface : Installed external ASPI interface
Used output format : User Defined Encoder
Selected bitrate : 768 kBit/s
Quality : High
Add ID3 tag : No
Command line compressor : C:\Program Files\Exact Audio Copy\FLAC\FLAC.EXE
Additional command line options : -6 -V -T "ARTIST=%a" -T "TITLE=%t" -T "ALBUM=%g" -T "DATE=%y" -T "TRACKNUMBER=%n" -T "GENRE=%m" -T "COMMENT=%e" %s -o %d
TOC of the extracted CD
Track | Start | Length | Start sector | End sector
---------------------------------------------------------
1 | 0:00.00 | 5:12.55 | 0 | 23454
2 | 5:12.55 | 7:28.15 | 23455 | 57069
3 | 12:40.70 | 7:36.15 | 57070 | 91284
4 | 20:17.10 | 3:39.47 | 91285 | 107756
5 | 23:56.57 | 6:49.38 | 107757 | 138469
6 | 30:46.20 | 5:57.15 | 138470 | 165259
7 | 36:43.35 | 6:34.10 | 165260 | 194819
8 | 43:17.45 | 7:42.00 | 194820 | 229469
Range status and errors
Selected range
Filename F:\z\Audun Kleive - Bitt.wav
Peak level 100.0 %
Range quality 100.0 %
Copy CRC CBB7F60B
Copy OK
No errors occurred
End of status report

Приватный:
Нет (DHT включён)
Размер:
335.90 Мб (352,212,800 байт) » файлов: 5
Участники:
0 раздают, 0 качают (0 участников всего)
Внешние участники:
2 раздают, 1 качают (3 участников всего) [ Обновить ]
No seeders - write a personal message to user M0p94ok. Нет сидеров - пишите личное сообщение пользователю M0p94ok.
02:59
53
Нет комментариев. Ваш будет первым!