Поиск

(Jazz) Audun Kleive - Generator X - 2000, FLAC (image+.cue), lossless

(Jazz) Audun Kleive - Generator X - 2000, FLAC (image+.cue), lossless
Треклист:
Audun Kleive - Generator X
Жанр: Jazz
Год выпуска диска: 2000
Производитель диска: Norway
Аудио кодек: FLAC
Тип рипа: image+.cue
Битрейт аудио: lossless
Продолжительность: 38:47
Arve Henriksen trumpet
Christian Wallumrød rhodes, prophet vs
Ståle Storløkken minimoog, prophet T8, emulator III
Jan Bang live sampling (tracks 2 & 5)
Audin Kleive drums, keyboards, vocals
Framework
Never Thought I Would/Bitt Decomposition
Mainstay
Obelisk
Generator X/Bitt Decomposition
 
EAC Report
Exact Audio Copy V0.99 prebeta 4 from 23. January 2008
EAC extraction logfile from 17. June 2008, 22:27
Audun Kleive / Generator X
Used drive : TSSTcorpCD/DVDW SH-S182M Adapter: 2 ID: 1
Read mode : Secure
Utilize accurate stream : Yes
Defeat audio cache : Yes
Make use of C2 pointers : No
Read offset correction : 6
Overread into Lead-In and Lead-Out : No
Fill up missing offset samples with silence : Yes
Delete leading and trailing silent blocks : No
Null samples used in CRC calculations : No
Used interface : Installed external ASPI interface
Used output format : User Defined Encoder
Selected bitrate : 768 kBit/s
Quality : High
Add ID3 tag : No
Command line compressor : C:\Program Files\Exact Audio Copy\FLAC\FLAC.EXE
Additional command line options : -6 -V -T "ARTIST=%a" -T "TITLE=%t" -T "ALBUM=%g" -T "DATE=%y" -T "TRACKNUMBER=%n" -T "GENRE=%m" -T "COMMENT=%e" %s -o %d
TOC of the extracted CD
Track | Start | Length | Start sector | End sector
---------------------------------------------------------
1 | 0:00.00 | 5:37.23 | 0 | 25297
2 | 5:37.23 | 7:51.08 | 25298 | 60630
3 | 13:28.31 | 6:40.08 | 60631 | 90638
4 | 20:08.39 | 10:27.41 | 90639 | 137704
5 | 30:36.05 | 8:10.70 | 137705 | 174524
Range status and errors
Selected range
Filename F:\z\Audun Kleive - Generator X.wav
Peak level 99.8 %
Range quality 100.0 %
Copy CRC CBF62BF9
Copy OK
No errors occurred
AccurateRip summary
Track 1 not present in database
Track 2 not present in database
Track 3 not present in database
Track 4 not present in database
Track 5 not present in database
None of the tracks are present in the AccurateRip database
End of status report

Приватный:
Нет (DHT включён)
Размер:
229.50 Мб (240,648,888 байт) » файлов: 5
Участники:
0 раздают, 0 качают (0 участников всего)
Внешние участники:
1 раздают, 0 качают (1 участников всего) [ Обновить ]
No seeders - write a personal message to user M0p94ok. Нет сидеров - пишите личное сообщение пользователю M0p94ok.
03:00
58
Нет комментариев. Ваш будет первым!