Поиск

(Experimental) Audun Kleive - Ohmagoddabl - 2004, FLAC (image+.cue), lossless

(Experimental) Audun Kleive - Ohmagoddabl - 2004, FLAC (image+.cue), lossless
Треклист:
Audun Kleive - Ohmagoddabl
Жанр: Jazz
Год выпуска диска: 2004
Производитель диска: Norway
Аудио кодек: FLAC
Тип рипа: image+.cue
Битрейт аудио: lossless
Продолжительность: 47:04

Audin Kleive drums, keyboards, vocals, additional programming and loops
Jan Bang sampling, live sampling, loops
Ståle Storløkken keyboards
Christian Wallumrød keyboards
Arve Henriksen treats or trumpet (tracks 1, 4, 5)
Genreactor
Exploded Cod
Stumblin' at the Savoy
Sessasphere
Ofcourseable
 
EAC Report
Exact Audio Copy V0.99 prebeta 4 from 23. January 2008
EAC extraction logfile from 6. June 2008, 0:02
Audun Kleive / Ohmagoddabl
Used drive : TSSTcorpCD/DVDW SH-S182M Adapter: 2 ID: 0
Read mode : Secure
Utilize accurate stream : Yes
Defeat audio cache : Yes
Make use of C2 pointers : No
Read offset correction : 6
Overread into Lead-In and Lead-Out : No
Fill up missing offset samples with silence : Yes
Delete leading and trailing silent blocks : No
Null samples used in CRC calculations : No
Used interface : Installed external ASPI interface
Used output format : User Defined Encoder
Selected bitrate : 1024 kBit/s
Quality : High
Add ID3 tag : No
Command line compressor : C:\Program Files\Exact Audio Copy\FLAC\FLAC.EXE
Additional command line options : -6 -V -T "ARTIST=%a" -T "TITLE=%t" -T "ALBUM=%g" -T "DATE=%y" -T "TRACKNUMBER=%n" -T "GENRE=%m" -T "COMMENT=%e" %s -o %d
TOC of the extracted CD
Track | Start | Length | Start sector | End sector
---------------------------------------------------------
1 | 0:00.00 | 6:11.00 | 0 | 27824
2 | 6:11.00 | 5:15.20 | 27825 | 51469
3 | 11:26.20 | 16:30.12 | 51470 | 125731
4 | 27:56.32 | 5:58.42 | 125732 | 152623
5 | 33:54.74 | 13:08.53 | 152624 | 211776
Range status and errors
Selected range
Filename F:\z\Audun Kleive - Ohmagoddabl.wav
Peak level 98.8 %
Range quality 100.0 %
Copy CRC 2E80DA01
Copy OK
No errors occurred
AccurateRip summary
Track 1 not present in database
Track 2 not present in database
Track 3 not present in database
Track 4 not present in database
Track 5 not present in database
None of the tracks are present in the AccurateRip database
End of status report

Приватный:
Нет (DHT включён)
Размер:
313.89 Мб (329,135,650 байт) » файлов: 5
Участники:
0 раздают, 0 качают (0 участников всего)
Внешние участники:
1 раздают, 0 качают (1 участников всего) [ Обновить ]
No seeders - write a personal message to user M0p94ok. Нет сидеров - пишите личное сообщение пользователю M0p94ok.
03:01
52
Нет комментариев. Ваш будет первым!