Поиск

(Free Jazz) AMM - The Crypt - 12th June 1968 - 1992, FLAC (image+.cue), lossless

Треклист:
AMM - The Crypt - 12th June 1968
Жанр: Free Jazz
Год выпуска диска: 1992
Производитель диска: England
Аудио кодек: FLAC
Тип рипа: image+.cue
Битрейт аудио: lossless
Продолжительность: 109:14
Трэклист:
1. Like a Cloud Hanging in the Sky? (45 21")
2. Coffin nor Shelf (45 36")
3. Neither Bill nor Axe would Shorten its Existence (18 08")
Доп. информация: Guitar, Electronics - Keith Rowe
Percussion - Christopher Hobbs , Eddie Prévost
Piano, Cello - Cornelius Cardew
Saxophone, Violin - Lou Gare
 
Disc 1
Exact Audio Copy V0.99 prebeta 4 from 23. January 2008
EAC extraction logfile from 10. August 2008, 18:22
Unknown Artist / Unknown Title
Used drive : Optiarc DVD RW AD-7200S Adapter: 2 ID: 0
Read mode : Secure
Utilize accurate stream : Yes
Defeat audio cache : Yes
Make use of C2 pointers : No
Read offset correction : 48
Overread into Lead-In and Lead-Out : No
Fill up missing offset samples with silence : Yes
Delete leading and trailing silent blocks : No
Null samples used in CRC calculations : Yes
Used interface : Native Win32 interface for Win NT & 2000
Used output format : User Defined Encoder
Selected bitrate : 768 kBit/s
Quality : High
Add ID3 tag : No
Command line compressor : C:\Program Files\Exact Audio Copy\FLAC\FLAC.EXE
Additional command line options : -6 -V -T "ARTIST=%a" -T "TITLE=%t" -T "ALBUM=%g" -T "DATE=%y" -T "TRACKNUMBER=%n" -T "GENRE=%m" -T "COMMENT=%e" %s -o %d
TOC of the extracted CD
Track | Start | Length | Start sector | End sector
---------------------------------------------------------
1 | 0:00.12 | 45:24.00 | 12 | 204311
Range status and errors
Selected range
Filename D:\RIPS 2\AMM The Crypt\CD 1\Unknown Artist - Unknown Title.wav
Peak level 100.0 %
Range quality 100.0 %
Test CRC FA3C5DB6
Copy CRC FA3C5DB6
Copy OK
No errors occurred
End of status report
 
Disc 2
Exact Audio Copy V0.99 prebeta 4 from 23. January 2008
EAC extraction logfile from 10. August 2008, 19:10
AMM / The Crypt
Used drive : Optiarc DVD RW AD-7200S Adapter: 2 ID: 0
Read mode : Secure
Utilize accurate stream : Yes
Defeat audio cache : Yes
Make use of C2 pointers : No
Read offset correction : 48
Overread into Lead-In and Lead-Out : No
Fill up missing offset samples with silence : Yes
Delete leading and trailing silent blocks : No
Null samples used in CRC calculations : Yes
Used interface : Native Win32 interface for Win NT & 2000
Used output format : User Defined Encoder
Selected bitrate : 768 kBit/s
Quality : High
Add ID3 tag : No
Command line compressor : C:\Program Files\Exact Audio Copy\FLAC\FLAC.EXE
Additional command line options : -6 -V -T "ARTIST=%a" -T "TITLE=%t" -T "ALBUM=%g" -T "DATE=%y" -T "TRACKNUMBER=%n" -T "GENRE=%m" -T "COMMENT=%e" %s -o %d
TOC of the extracted CD
Track | Start | Length | Start sector | End sector
---------------------------------------------------------
1 | 0:00.00 | 45:40.12 | 0 | 205511
2 | 45:40.12 | 18:09.63 | 205512 | 287249
Range status and errors
Selected range
Filename D:\RIPS 2\AMM The Crypt\CD 2\AMM - The Crypt.wav
Peak level 99.9 %
Range quality 99.9 %
Test CRC D4A7F87A
Copy CRC D4A7F87A
Copy OK
No errors occurred
End of status report

P.S. Если Вам понравилась музыка, а тем более если она близка по духу, обязательно купите официальный альбом и так поддержите музыкантов!
Приватный:
Нет (DHT включён)
Размер:
563.89 Мб (591,279,381 байт) » файлов: 6
Участники:
0 раздают, 0 качают (0 участников всего)
Внешние участники:
3 раздают, 1 качают (4 участников всего) [ Обновить ]
No seeders - write a personal message to user M0p94ok. Нет сидеров - пишите личное сообщение пользователю M0p94ok.
03:01
45
Нет комментариев. Ваш будет первым!