Поиск

(Free Improv, e2e) John Tilbury and Evan Parker - Two Chapters and an Epilogue - 2000, FLAC (tracks), lossless

(Free Improv, e2e) John Tilbury and Evan Parker - Two Chapters and an Epilogue - 2000, FLAC (tracks), lossless
Треклист:
John Tilbury and Evan Parker - Two Chapters and an Epilogue
Жанр: Free Improv
Год выпуска диска: 2000
Производитель диска: England
Аудио кодек: FLAC
Тип рипа: tracks
Битрейт аудио: lossless
Трэклист:
01. In Which the Listener Will Perceive That in Some Cases Madness Is Catching
02. Which Shews That There Are More Ways to Kill a Dog Than Hanging
03. Perro Semihundido
Доп. информация:
John Tilbury: piano
Evan Parker: tenor and soprano saxophones
Label: Matchless Recordings
 
EAC log
Exact Audio Copy V0.99 prebeta 4 from 23. January 2008
EAC extraction logfile from 29. July 2008, 19:39
John Tilbury and Evan Parker / Two Chapters and an Epilogue
Used drive : PIONEER DVD-RW DVR-109 Adapter: 1 ID: 0
Read mode : Secure
Utilize accurate stream : Yes
Defeat audio cache : Yes
Make use of C2 pointers : No
Read offset correction : 48
Overread into Lead-In and Lead-Out : No
Fill up missing offset samples with silence : Yes
Delete leading and trailing silent blocks : No
Null samples used in CRC calculations : Yes
Used interface : Native Win32 interface for Win NT & 2000
Gap handling : Appended to previous track
Used output format : User Defined Encoder
Selected bitrate : 32 kBit/s
Quality : High
Add ID3 tag : No
Command line compressor : C:\Program Files\Exact Audio Copy\Flac\flac.exe
Additional command line options : -V -8 -T "artist=%a" -T "title=%t" -T "album=%g" -T "date=%y" -T "tracknumber=%n" -T "genre=%m" %s
TOC of the extracted CD
Track | Start | Length | Start sector | End sector
---------------------------------------------------------
1 | 0:00.00 | 31:42.21 | 0 | 142670
2 | 31:42.21 | 36:54.55 | 142671 | 308775
3 | 68:37.01 | 2:43.36 | 308776 | 321036
Track 1
Filename D:\Torrent\John Tilbury and Evan Parker - Two Chapters and an Epilogue (2000) [FLAC]\01 - In Which the Listener Will Perceive That in Some Cases Madness Is Catching.wav
Pre-gap length 0:00:02.00
Peak level 91.7 %
Track quality 100.0 %
Test CRC 9F8B6DBB
Copy CRC 9F8B6DBB
Track not present in AccurateRip database
Copy OK
Track 2
Filename D:\Torrent\John Tilbury and Evan Parker - Two Chapters and an Epilogue (2000) [FLAC]\02 - Which Shews That There Are More Ways to Kill a Dog Than Hanging.wav
Peak level 90.6 %
Track quality 100.0 %
Test CRC 808A88A4
Copy CRC 808A88A4
Track not present in AccurateRip database
Copy OK
Track 3
Filename D:\Torrent\John Tilbury and Evan Parker - Two Chapters and an Epilogue (2000) [FLAC]\03 - Perro Semihundido.wav
Peak level 72.1 %
Track quality 100.0 %
Test CRC E0FE1579
Copy CRC E0FE1579
Track not present in AccurateRip database
Copy OK
None of the tracks are present in the AccurateRip database
No errors occurred
End of status report
 
Thom Jurek (AMG) wrote:
The pairing of improv heroes pianist John Tilbury and saxophonist Evan Parker seems a bit anticlimactic in its possibility. In actuality, however, the end result is anything but. This is a pairing made in the pact of restraint, where tonal studies would be catered to, coaxed, cajoled, and in some cases even begged out of the air between the two instrumentalists. Two half-hour improvisations and one under three minutes tease out the premise that time and space, or at least our perceptions of it, can indeed be stretched, warped, and even turned inside out. The advanced sense of microtonality and elastic harmonics that Parker and Tilbury manipulate and attempt to obliterate, however subtly, is remarkable. Parker is the most surprising, responding with longer lines, rounded tones, and less angles than he usually does, and with less obvious spatial breathing techniques. His lines chop at the ends rather than knot; they force his ideas into space rather than skittering them out, before ushering in the next in his response to Tilbury. For his part, Tilbury strides the higher register in search of another couple of keys. Oddly enough, he finds them along the way, in large part because of Parker's striations. This is music for the hunt, the chase, the game of hide and seek. It is elegant, brainy, and passionate in its own egghead way. Highly recommended.
Приватный:
Нет (DHT включён)
Размер:
260.04 Мб (272,667,253 байт) » файлов: 14
Участники:
0 раздают, 0 качают (0 участников всего)
Внешние участники:
2 раздают, 1 качают (3 участников всего) [ Обновить ]
No seeders - write a personal message to user M0p94ok. Нет сидеров - пишите личное сообщение пользователю M0p94ok.
02:55
56
Нет комментариев. Ваш будет первым!