Поиск

(Jazz) Gato Barbieri "Yesterdays" - 1974, FLAC (image+.cue), lossless

Треклист:
Gato Barbieri "Yesterdays"
Жанр: Jazz
Год выпуска диска: 1974
Аудио кодек: FLAC
Тип рипа: image+.cue
Битрейт аудио: lossless
Продолжительность: 00:37:15
Трэклист:
1. (00:10:43) Gato Barbieri - Yesterdays
2. (00:08:19) Gato Barbieri - A John Coltrane Blues
3. (00:07:05) Gato Barbieri - Marnie
4. (00:10:53) Gato Barbieri - Cariсoso
 
Отчет ЕАС
Exact Audio Copy V0.99 prebeta 3 from 28. July 2007
Отчёт EAC об извлечении, выполненном 30. июня 2008, 10:33
Gato Barbieri / Yesterdays
Дисковод: PIONEER DVD-RW DVR-111D Adapter: 0 ID: 0
Режим чтения : Достоверность
Использование точного потока : Да
Отключение кэша аудио : Да
Использование указателей C2 : Нет
Коррекция смещения при чтении : 48
Способность читать области Lead-in и Lead-out : Нет
Заполнение пропущенных сэмплов тишиной : Да
Удаление блоков с тишиной в начале и конце : Нет
При вычислениях CRC использовались нулевые сэмплы : Нет
Интерфейс : Встроенный Win32-интерфейс для Win NT/2000
Выходной формат : Пользовательский кодировщик
Выбранный битрейт : 768 kBit/s
Качество : Высокий
Добавление ID3-тэга : Нет
Утилита сжатия : C:\Program Files\Exact Audio Copy\FLAC\FLAC.EXE
Дополнительные параметры : -6 -V -T "ARTIST=%a" -T "TITLE=%t" -T "ALBUM=%g" -T "DATE=%y" -T "TRACKNUMBER=%n" -T "GENRE=%m" -T "COMMENT=%e" %s -o %d
TOC извлечённого CD
Трек | Старт | Длительность | Начальный сектор | Конечный сектор
---------------------------------------------------------------------
1 | 0:00.00 | 10:43.00 | 0 | 48224
2 | 10:43.00 | 8:30.00 | 48225 | 86474
3 | 19:13.00 | 7:09.00 | 86475 | 118649
4 | 26:22.00 | 10:53.00 | 118650 | 167624
Характеристики диапазона извлечения и сообщения об ошибках
Выбранный диапазон
Имя файла E:\Muzon-zip\New-ZIP-My\Gato Barbieri - Yesterdays\Gato Barbieri - Yesterdays.wav
Пиковый уровень 79.3 %
Качество диапазона 100.0 %
CRC копии 0DA3CE89
Копирование... OK
Ошибок не произошло
Конец отчёта
02:28
367
Нет комментариев. Ваш будет первым!