Поиск

(Jazz) Flora Purim "Speak No Evil" - 2003, FLAC (image+.cue), lossless

Flora Purim "Speak No Evil"
Жанр: Jazz
Год выпуска диска: 2003
Аудио кодек: FLAC
Тип рипа: image+.cue
Битрейт аудио: lossless
Продолжительность: 00:50:22
Трэклист:
1. (00:05:05) Flora Purim - This Magic
2. (00:03:54) Flora Purim - You Go To My Head
3. (00:05:13) Flora Purim - Speak No Evil (All For One)
4. (00:02:52) Flora Purim - I've Got You Under My Skin
5. (00:05:05) Flora Purim - Tamanco no Samba
6. (00:06:29) Flora Purim - Don't Say A Word
7. (00:05:02) Flora Purim - Primeira Estrela
8. (00:05:22) Flora Purim - It Ain't Necessarily So
9. (00:04:37) Flora Purim - I Feel You
10. (00:06:40) Flora Purim - O Sonho (Moon Dreams)
 
Отчет ЕАС
Exact Audio Copy V0.99 prebeta 3 from 28. July 2007
Отчёт EAC об извлечении, выполненном 11. июня 2008, 15:36
Flora Purim / Speak No Evil
Дисковод: PIONEER DVD-RW DVR-111D Adapter: 0 ID: 0
Режим чтения : Достоверность
Использование точного потока : Да
Отключение кэша аудио : Да
Использование указателей C2 : Нет
Коррекция смещения при чтении : 48
Способность читать области Lead-in и Lead-out : Нет
Заполнение пропущенных сэмплов тишиной : Да
Удаление блоков с тишиной в начале и конце : Нет
При вычислениях CRC использовались нулевые сэмплы : Нет
Интерфейс : Встроенный Win32-интерфейс для Win NT/2000
Выходной формат : Пользовательский кодировщик
Выбранный битрейт : 768 kBit/s
Качество : Высокий
Добавление ID3-тэга : Нет
Утилита сжатия : C:\Program Files\Exact Audio Copy\FLAC\FLAC.EXE
Дополнительные параметры : -6 -V -T "ARTIST=%a" -T "TITLE=%t" -T "ALBUM=%g" -T "DATE=%y" -T "TRACKNUMBER=%n" -T "GENRE=%m" -T "COMMENT=%e" %s -o %d
TOC извлечённого CD
Трек | Старт | Длительность | Начальный сектор | Конечный сектор
---------------------------------------------------------------------
1 | 0:00.00 | 5:06.01 | 0 | 22950
2 | 5:06.01 | 3:54.52 | 22951 | 40552
3 | 9:00.53 | 5:13.06 | 40553 | 64033
4 | 14:13.59 | 2:52.28 | 64034 | 76961
5 | 17:06.12 | 5:05.32 | 76962 | 99868
6 | 22:11.44 | 6:28.54 | 99869 | 129022
7 | 28:40.23 | 5:01.73 | 129023 | 151670
8 | 33:42.21 | 5:22.00 | 151671 | 175820
9 | 39:04.21 | 4:37.60 | 175821 | 196655
10 | 43:42.06 | 6:39.49 | 196656 | 226629
Характеристики диапазона извлечения и сообщения об ошибках
Выбранный диапазон
Имя файла E:\Muzon-zip\New-ZIP-My\Flora Purim - Speak No Evil\Flora Purim - Speak No Evil.wav
Пиковый уровень 98.8 %
Качество диапазона 100.0 %
CRC копии 16F19756
Копирование... OK
Ошибок не произошло
Конец отчёта
03:27
317
Нет комментариев. Ваш будет первым!