Поиск

(Cool, Brazilian jazz, Bop) LA4 - Concierto de Aranjuez - 1976, FLAC (tracks+.cue), lossless

Треклист:
LA4 - Concierto de Aranjuez (1976)
Жанр: Cool, Brazilian jazz, Bop
Дата выпуска: 1976
Производитель диска, страна: © Concord Jazz, Bellaphon Rec., West Germany
Аудио кодек: FLAC
Тип рипа: (tracks + .cue)
Битрейт аудио: lossless
Сканы: Disc, Back
Источник: коллекция Л.Рендера
Риппер: Musicgate
Трэклист:
1. DINDI (5:50) (Ray Gilbert/Antonio Carlos Jobim)
2. RAINBOWS (6:42) (Bud Shank)
3. RONDO ESPRESSIVO (4:41) (Carl Philipp Emanuel Bach)
4. MANTECA (7:42) (John Birks Gillespie/Walter Fuller)
5. ST.THOMAS (7:26) (Sonny Rollins)
6. CONCIERTO DE ARANJUEZ (13:15) (Joaquin Rodrigo)
Состав:
LAURINDO ALMEIDA - guitar
RAY BROWN - bass
SHELLY MANNE - drumms
BUD SHANK - alto and flute
Рейтинги и премии:
Allmusic - 4,5
Издания:
1992 CD Concord Jazz CCD-4018
1992 CS Concord Jazz CJ-18-C
CD Concord Jazz 4018
Мои раздачи на треккере - jazz / fusion / prog
 
Несколько слов на английском - Scott Yanow
The second recording and first studio set by the L.A. Four matched together Bud Shank on alto and flute, guitarist Laurindo Almeida, bassist Ray Brown, and drummer Shelly Manne for a diverse yet consistently enjoyable program. The selections range from "Dindi" and "Manteca" to "St. Thomas" and a 13-minute exploration of "Concierto de Aranjuez." As usual, the band mixes together bossa nova and Brazilian jazz, some touches of classical music, and cool-toned bop. Recommended as a strong example of the group's appealing sound.
 
Folder content
01 - Dindi.flac
02 - Rainbows.flac
03 - Rondo Espressivo.flac
04 - Manteca.flac
05 - St. Thomas.flac
06 - Concierto de Aranjuez.flac
Artwork
Concierto de Aranjuez_Noncompliant.cue
Concierto de Aranjuez_Single Wav.cue
L.A. 4 - Concierto de Aranjuez.log
L.A. 4 - Concierto de Aranjuez.m3u
tau.txt
Artwork\Back.png
Artwork\Disc.png
 
EAC log
Exact Audio Copy V0.99 prebeta 4 from 23. January 2008
EAC extraction logfile from 21. August 2008, 19:17
L.A. 4 / Concierto de Aranjuez
Used drive : PIONEER DVD-RW DVR-112D Adapter: 0 ID: 0
Read mode : Secure
Utilize accurate stream : Yes
Defeat audio cache : Yes
Make use of C2 pointers : No
Read offset correction : 48
Overread into Lead-In and Lead-Out : No
Fill up missing offset samples with silence : Yes
Delete leading and trailing silent blocks : No
Null samples used in CRC calculations : Yes
Used interface : Installed external ASPI interface
Gap handling : Appended to previous track
Used output format : User Defined Encoder
Selected bitrate : 320 kBit/s
Quality : High
Add ID3 tag : Yes
Command line compressor : C:\Program Files\Exact Audio Copy\Flac\flac.exe
Additional command line options : -V -8 -T "artist=%a" -T "title=%t" -T "album=%g" -T "date=%y" -T "tracknumber=%n" -T "genre=%m" %s
TOC of the extracted CD
Track | Start | Length | Start sector | End sector
---------------------------------------------------------
1 | 0:00.00 | 5:55.55 | 0 | 26679
2 | 5:55.55 | 6:46.05 | 26680 | 57134
3 | 12:41.60 | 4:44.52 | 57135 | 78486
4 | 17:26.37 | 7:46.25 | 78487 | 113461
5 | 25:12.62 | 7:30.18 | 113462 | 147229
6 | 32:43.05 | 13:14.67 | 147230 | 206846
Track 1
Filename D:\music\rip\LA4 - Concierto de Aranjuez (1976) {Concord Jazz}\01 - Dindi.wav
Pre-gap length 0:00:02.00
Peak level 86.5 %
Track quality 100.0 %
Test CRC 1CE8455E
Copy CRC 1CE8455E
Track not present in AccurateRip database
Copy OK
Track 2
Filename D:\music\rip\LA4 - Concierto de Aranjuez (1976) {Concord Jazz}\02 - Rainbows.wav
Pre-gap length 0:00:04.04
Peak level 91.6 %
Track quality 100.0 %
Test CRC DEE7FCFD
Copy CRC DEE7FCFD
Track not present in AccurateRip database
Copy OK
Track 3
Filename D:\music\rip\LA4 - Concierto de Aranjuez (1976) {Concord Jazz}\03 - Rondo Espressivo.wav
Pre-gap length 0:00:03.84
Peak level 76.8 %
Track quality 100.0 %
Test CRC 1AE2F946
Copy CRC 1AE2F946
Track not present in AccurateRip database
Copy OK
Track 4
Filename D:\music\rip\LA4 - Concierto de Aranjuez (1976) {Concord Jazz}\04 - Manteca.wav
Pre-gap length 0:00:04.02
Peak level 100.0 %
Track quality 100.0 %
Test CRC 2D62A80F
Copy CRC 2D62A80F
Track not present in AccurateRip database
Copy OK
Track 5
Filename D:\music\rip\LA4 - Concierto de Aranjuez (1976) {Concord Jazz}\05 - St. Thomas.wav
Pre-gap length 0:00:03.96
Peak level 91.7 %
Track quality 100.0 %
Test CRC E9853A22
Copy CRC E9853A22
Track not present in AccurateRip database
Copy OK
Track 6
Filename D:\music\rip\LA4 - Concierto de Aranjuez (1976) {Concord Jazz}\06 - Concierto de Aranjuez.wav
Pre-gap length 0:00:03.84
Peak level 92.5 %
Track quality 100.0 %
Test CRC 12777596
Copy CRC 12777596
Track not present in AccurateRip database
Copy OK
None of the tracks are present in the AccurateRip database
No errors occurred
End of status report
 
TAU log
4081214098 62751404 01 - Dindi.wav
3996332880 71630204 02 - Rainbows.wav
980321075 50219948 03 - Rondo Espressivo.wav
1182083056 82261244 04 - Manteca.wav
3745142616 79422380 05 - St. Thomas.wav
625189309 140219228 06 - Concierto de Aranjuez.wav
auCDtect: CD records authenticity detector, version 0.8.2
Copyright (c) 2004 Oleg Berngardt. All rights reserved.
Copyright (c) 2004 Alexander Djourik. All rights reserved.
------------------------------------------------------------
Processing file: [01 - Dindi.wav]
------------------------------------------------------------
This track looks like CDDA with probability 58%
------------------------------------------------------------
Processing file: [02 - Rainbows.wav]
------------------------------------------------------------
This track looks like CDDA with probability 100%
------------------------------------------------------------
Processing file: [03 - Rondo Espressivo.wav]
------------------------------------------------------------
This track looks like CDDA with probability 100%
------------------------------------------------------------
Processing file: [04 - Manteca.wav]
------------------------------------------------------------
This track looks like CDDA with probability 100%
------------------------------------------------------------
Processing file: [05 - St. Thomas.wav]
------------------------------------------------------------
This track looks like CDDA with probability 100%
------------------------------------------------------------
Processing file: [06 - Concierto de Aranjuez.wav]
------------------------------------------------------------
This track looks like CDDA with probability 100%
------------------------------------------------------------
Final Conclusion:
------------------------------------------------------------
These tracks looks like CDDA with probability 100%
Я не сидирую все свои раздачи подолгу, только новые (до 3х первых сидов)
Предлагаю скачавшим максимально долго оставаться на раздаче - весь рейтинг будет ваш
Я вернусь, если меня попросят в топике или в ПМ
03:27
273
Нет комментариев. Ваш будет первым!