Поиск

(Jazz, Funk) VA - NU Funk: A Selection Of New Rare Tunes With A Funk Flavour 2CD - 2007, FLAC (image+.cue), lossless

(Jazz, Funk) VA - NU Funk: A Selection Of New Rare Tunes With A Funk Flavour 2CD - 2007, FLAC (image+.cue), lossless
Треклист:
Various Artists - NU Funk: A Selection Of New Rare Tunes With A Funk Flavour 2CD
Жанр: Jazz, Funk
Год выпуска диска: 2007
Производитель диска: Wagram / France
Аудио кодек: FLAC
Тип рипа: image+.cue
Битрейт аудио: lossless
Продолжительность: 2:18 ч.
Covers: 600dpi
Источник: мой рип
Трэклист:
CD1
01. Breakestra / Stand Up [0:04:55.58]
02. Spanky Wilson&The Quantic Soul Orchestra / Don't Joke With The Hungry Man [0:03:25.24]
03. The Bamboos Featuring Fallon Williams / My Baby's Cheating [0:03:41.16]
04. Greyboy Featuring Bart Davenport / Genevieve [0:04:01.28]
05. Robert Moore / Make It Alright [0:02:56.19]
06. Bentzon Brotherhood / Rappers Delight [0:04:11.49]
07. The Dynamics / Land Of 1000 Dances [0:04:00.34]
08. DJ Spinna Featuring The Tortured Soul Band / Rock (Unplugged) [0:04:33.05]
09. Jaguar / That's Your Problem Baby [0:08:32.55]
10. Jumbonics / Last Nite [0:04:34.51]
11. Me & You / Sneaker Thief [0:05:39.64]
12. Up Hygh / Compatible [0:04:19.35]
13. Flevans / Notion [0:04:40.24]
14. Jeremy Ellis / Chameleon [0:08:15.42]
15. Nino Moschella / Inside Yourself [0:02:07.40]
CD2
01. Mr President Feat.Mr Day / Love & Happiness [0:05:00.61]
02. Big Daddy Moochin / No Rest For The Wicked [0:02:34.40]
03. Quantic Feat.Ohmega Watts / Ticket To Know Where [0:04:03.47]
04. Karl Denson Feat.Fred Wesley & Roy Hargrove / Elephants [0:09:09.49]
05. Flow Dynamics / Line In The Mix [0:05:05.21]
06. Cookin' On 3 Burners / Keb's Bucket [0:03:27.53]
07. The Real Fake Mc / Live & Survive [0:03:54.30]
08. Outlines / Hold On [0:03:34.64]
09. Chin Chin / You Can't Hold Her [0:03:48.45]
10. Dorfmeister Vs Madrid De Los Austrias / Boogie No More [0:06:00.38]
11. Makossa& Megablast Feat.Capitol A / Like A Rocket [0:06:45.19]
12. Jazzanova - Theme From Belle & Fou - The Opening [0:03:38.16]
13. Syrup - 51 Cents Left [0:05:50.38]
14. Sirius Mo / U Again [0:02:33.09]
15. Ben Momo Feat.Bajka / Protection (Sirius Mo Remix) [0:04:26.05]
 
Лог EAC CD1
Exact Audio Copy V0.99 prebeta 4 from 23. January 2008
Отчёт EAC об извлечении, выполненном 5. февраля 2010, 20:18
Various / NU Funk - A Selection Of New Rare Tunes With A Funk Flavour - CD1
Дисковод: PLEXTOR DVDR PX-810SA Adapter: 0 ID: 0
Режим чтения : Достоверность
Использование точного потока : Да
Отключение кэша аудио : Да
Использование указателей C2 : Нет
Коррекция смещения при чтении : 48
Способность читать области Lead-in и Lead-out : Нет
Заполнение пропущенных сэмплов тишиной : Да
Удаление блоков с тишиной в начале и конце : Нет
При вычислениях CRC использовались нулевые сэмплы : Да
Интерфейс : Встроенный Win32-интерфейс для Win NT/2000
Выходной формат : Внутренние WAV-операции
Формат сэмплов : 44.100 Гц; 16 бит; стерео
TOC извлечённого CD
Трек | Старт | Длительность | Начальный сектор | Конечный сектор
---------------------------------------------------------------------
1 | 0:00.00 | 4:55.58 | 0 | 22182
2 | 4:55.58 | 3:25.24 | 22183 | 37581
3 | 8:21.07 | 3:41.16 | 37582 | 54172
4 | 12:02.23 | 4:01.28 | 54173 | 72275
5 | 16:03.51 | 2:56.19 | 72276 | 85494
6 | 18:59.70 | 4:11.49 | 85495 | 104368
7 | 23:11.44 | 4:00.34 | 104369 | 122402
8 | 27:12.03 | 4:33.05 | 122403 | 142882
9 | 31:45.08 | 8:32.55 | 142883 | 181337
10 | 40:17.63 | 4:34.51 | 181338 | 201938
11 | 44:52.39 | 5:39.64 | 201939 | 227427
12 | 50:32.28 | 4:19.35 | 227428 | 246887
13 | 54:51.63 | 4:40.24 | 246888 | 267911
14 | 59:32.12 | 8:15.42 | 267912 | 305078
15 | 67:47.54 | 2:07.40 | 305079 | 314643
Характеристики диапазона извлечения и сообщения об ошибках
Выбранный диапазон
Имя файла E:\Загрузка\Out\NU Funk (2007)\Various - NU Funk - A Selection Of New Rare Tunes With A Funk Flavour - CD1.wav
Пиковый уровень 97.7 %
Качество диапазона 100.0 %
CRC копии 293580CB
Копирование... OK
Ошибок не произошло
AccurateRip: сводка
Трек 1 точное извлечение (доверие 1) [AF9935E0]
Трек 2 точное извлечение (доверие 1) [4C6C7159]
Трек 3 точное извлечение (доверие 1) [53D77A12]
Трек 4 точное извлечение (доверие 1) [A7F16514]
Трек 5 точное извлечение (доверие 1) [58A7B518]
Трек 6 точное извлечение (доверие 1) [4FC6C433]
Трек 7 точное извлечение (доверие 1) [D3FD659A]
Трек 8 точное извлечение (доверие 1) [0ED7913D]
Трек 9 точное извлечение (доверие 1) [9687271C]
Трек 10 точное извлечение (доверие 1) [8C9B31BD]
Трек 11 точное извлечение (доверие 1) [75F5741E]
Трек 12 точное извлечение (доверие 1) [D4711F93]
Трек 13 точное извлечение (доверие 1) [04246933]
Трек 14 точное извлечение (доверие 1) [183FC401]
Трек 15 точное извлечение (доверие 1) [17D5B3E2]
Все треки извлечены точно
Конец отчёта
 
Лог EAC CD2
Exact Audio Copy V0.99 prebeta 4 from 23. January 2008
Отчёт EAC об извлечении, выполненном 5. февраля 2010, 20:35
VA / NU Funk - A Selection Of New Rare Tunes With A Funk Flavour - CD2
Дисковод: PLEXTOR DVDR PX-810SA Adapter: 0 ID: 0
Режим чтения : Достоверность
Использование точного потока : Да
Отключение кэша аудио : Да
Использование указателей C2 : Нет
Коррекция смещения при чтении : 48
Способность читать области Lead-in и Lead-out : Нет
Заполнение пропущенных сэмплов тишиной : Да
Удаление блоков с тишиной в начале и конце : Нет
При вычислениях CRC использовались нулевые сэмплы : Да
Интерфейс : Встроенный Win32-интерфейс для Win NT/2000
Выходной формат : Внутренние WAV-операции
Формат сэмплов : 44.100 Гц; 16 бит; стерео
TOC извлечённого CD
Трек | Старт | Длительность | Начальный сектор | Конечный сектор
---------------------------------------------------------------------
1 | 0:00.00 | 5:00.61 | 0 | 22560
2 | 5:00.61 | 2:34.40 | 22561 | 34150
3 | 7:35.26 | 4:03.47 | 34151 | 52422
4 | 11:38.73 | 9:09.49 | 52423 | 93646
5 | 20:48.47 | 5:05.21 | 93647 | 116542
6 | 25:53.68 | 3:27.53 | 116543 | 132120
7 | 29:21.46 | 3:54.30 | 132121 | 149700
8 | 33:16.01 | 3:34.64 | 149701 | 165814
9 | 36:50.65 | 3:48.45 | 165815 | 182959
10 | 40:39.35 | 6:00.38 | 182960 | 209997
11 | 46:39.73 | 6:45.19 | 209998 | 240391
12 | 53:25.17 | 3:38.16 | 240392 | 256757
13 | 57:03.33 | 5:50.38 | 256758 | 283045
14 | 62:53.71 | 2:33.09 | 283046 | 294529
15 | 65:27.05 | 4:26.05 | 294530 | 314484
Характеристики диапазона извлечения и сообщения об ошибках
Выбранный диапазон
Имя файла E:\Загрузка\Out\NU Funk (2007)\Various - NU Funk - A Selection Of New Rare Tunes With A Funk Flavour - CD2.wav
Пиковый уровень 100.0 %
Качество диапазона 100.0 %
CRC копии 2578FD61
Копирование... OK
Ошибок не произошло
AccurateRip: сводка
Трек 1 нет в базе данных
Трек 2 нет в базе данных
Трек 3 нет в базе данных
Трек 4 нет в базе данных
Трек 5 нет в базе данных
Трек 6 нет в базе данных
Трек 7 нет в базе данных
Трек 8 нет в базе данных
Трек 9 нет в базе данных
Трек 10 нет в базе данных
Трек 11 нет в базе данных
Трек 12 нет в базе данных
Трек 13 нет в базе данных
Трек 14 нет в базе данных
Трек 15 нет в базе данных
Ни одного трека нет в базе AccurateRip
Конец отчёта
Приватный:
Нет (DHT включён)
Размер:
856.80 Мб (898,415,101 байт) » файлов: 13
Участники:
0 раздают, 0 качают (0 участников всего)
Внешние участники:
2 раздают, 1 качают (3 участников всего) [ Обновить ]
Нет сидеров - пишите личное сообщение M0p94ok. Не нравятся торренты? Участники группы Pro-jazz Club могут заказать прямую ссылку на скачивание из облака.
No seeders - write a personal message to M0p94ok. Don't like torrents? Members of Pro-jazz Club group can order a direct download link from the cloud.
02:24
30
Нет комментариев. Ваш будет первым!