Поиск

(Funk, Disco) VA - Masterpiece Volume 9 - The Ultimate Disco Funk Collection (PTG CD [34076]) - 2009, FLAC (tracks+.cue), lossless

(Funk, Disco) VA - Masterpiece Volume 9 - The Ultimate Disco Funk Collection (PTG CD [34076]) - 2009, FLAC (tracks+.cue), lossless
Треклист:
Various Artists - Masterpiece Volume 9 The Ultimate Disco Funk Collection
Жанр: Funk, Disco
Год выпуска диска: 2009
Производитель диска: Netherlands, PTG Records
Аудио кодек: FLAC
Тип рипа: tracks+.cue
Битрейт аудио: lossless
Продолжительность: 1:16:34
Трэклист:
1 Krystol - Don't Change Your Ways 4:40
2 Bailey & Bridges - Come And Get It (U.S. Version) 5:37
3 Bobby Thurston - My Love's The Real Thing (Frankie Rodriquez Real Re-Edit) 6:26
4 D-Train - Music (Frankie Rodriquez Music Express Mix) 9:08
5 Tracy Weber - Sure Shot (Larry Levan Mix) 7:13
6 Nick Straker Band, The - Straight Ahead" 6:43
7 First Love - Can I Be With You Tonight 4:58
8 Second Image - Starting Again 5:15
9 Shot Featuring Kim Marsh - Main Thing 5:42
10 B-biz-R - Sucker For Love 5:06
11 Carol Douglas - I Got Your Body 5:38
12 Willie Collins - Where You Gonna Be Tonight 4:52
13 Ronnie McNeir, The - Come Be With Me 5:08
 
cue
REM GENRE Disco
REM DATE 2009
REM DISCID CB11F20D
REM COMMENT "ExactAudioCopy v0.99pb5"
FILE "01. Krystol - Don't Change Your Ways.wav" WAVE
TRACK 01 AUDIO
INDEX 01 00:00:00
FILE "02. Bailey & Bridges - Come And Get It (U.S. Version).wav" WAVE
TRACK 02 AUDIO
INDEX 01 00:00:00
FILE "03. Bobby Thurston - My Love's The Real Thing (Frankie Rodriguez' Real Re-Edit).wav" WAVE
TRACK 03 AUDIO
INDEX 01 00:00:00
FILE "04. D-Train - Music (Frankie Rodriguez Music Express Mix).wav" WAVE
TRACK 04 AUDIO
INDEX 01 00:00:00
FILE "05. Tracy Weber - Sure Shot (Larry Levan Mix).wav" WAVE
TRACK 05 AUDIO
INDEX 01 00:00:00
FILE "06. Nick Straker Band - Straight Ahead.wav" WAVE
TRACK 06 AUDIO
INDEX 01 00:00:00
FILE "07. First Love - Can I Be With You Tonight.wav" WAVE
TRACK 07 AUDIO
INDEX 01 00:00:00
FILE "08. Second Image - Starting Again.wav" WAVE
TRACK 08 AUDIO
INDEX 01 00:00:00
FILE "09. Shot ft.Kim Marsh - Main Thing.wav" WAVE
TRACK 09 AUDIO
INDEX 01 00:00:00
FILE "10. B-Biz-R - Sucker For Love (Extended U.S. Mix).wav" WAVE
TRACK 10 AUDIO
INDEX 01 00:00:00
FILE "11. Carol Douglas - I Got Your Body.wav" WAVE
TRACK 11 AUDIO
INDEX 01 00:00:00
FILE "12. Willie Collins - Where You Gonna Be Tonight.wav" WAVE
TRACK 12 AUDIO
INDEX 01 00:00:00
FILE "13. The Ronnie Mcneir Experience - Come Be With Me.wav" WAVE
TRACK 13 AUDIO
INDEX 01 00:00:00
 
logs
 
eac
Exact Audio Copy V0.99 prebeta 5 from 4. May 2009
EAC extraction logfile from 15. January 2010, 19:53
Various / Masterpiece Volume 9
Used drive : TSSTcorpCDDVDW SH-S223F Adapter: 3 ID: 0
Read mode : Secure
Utilize accurate stream : Yes
Defeat audio cache : Yes
Make use of C2 pointers : No
Read offset correction : 6
Overread into Lead-In and Lead-Out : No
Fill up missing offset samples with silence : Yes
Delete leading and trailing silent blocks : No
Null samples used in CRC calculations : Yes
Used interface : Native Win32 interface for Win NT & 2000
Gap handling : Appended to previous track
Used output format : User Defined Encoder
Selected bitrate : 192 kBit/s
Quality : High
Add ID3 tag : No
Command line compressor : D:\Program Files\Exact Audio Copy\flac-1.1.4-win\bin\flac.exe
Additional command line options : -V -8 -T "artist=%a" -T "title=%t" -T "album=%g" -T "date=%y" -T "tracknumber=%n" -T "genre=%m" %s
TOC of the extracted CD
Track | Start | Length | Start sector | End sector
---------------------------------------------------------
1 | 0:00.00 | 4:40.25 | 0 | 21024
2 | 4:40.25 | 5:37.05 | 21025 | 46304
3 | 10:17.30 | 6:26.60 | 46305 | 75314
4 | 16:44.15 | 9:08.40 | 75315 | 116454
5 | 25:52.55 | 7:13.50 | 116455 | 148979
6 | 33:06.30 | 6:45.19 | 148980 | 179373
7 | 39:51.49 | 4:58.48 | 179374 | 201771
8 | 44:50.22 | 5:15.67 | 201772 | 225463
9 | 50:06.14 | 5:42.47 | 225464 | 251160
10 | 55:48.61 | 5:06.03 | 251161 | 274113
11 | 60:54.64 | 5:38.68 | 274114 | 299531
12 | 66:33.57 | 4:52.16 | 299532 | 321447
13 | 71:25.73 | 5:08.43 | 321448 | 344590
Track 1
Filename E:\EAC\VA - Masterpiece Volume 9 - CD - 2009 - FLAC\01. Krystol - Don't Change Your Ways.wav
Pre-gap length 0:00:02.00
Peak level 99.9 %
Track quality 100.0 %
Test CRC 09CE0777
Copy CRC 09CE0777
Track not present in AccurateRip database
Copy OK
Track 2
Filename E:\EAC\VA - Masterpiece Volume 9 - CD - 2009 - FLAC\02. Bailey & Bridges - Come And Get It (U.S. Version).wav
Peak level 99.9 %
Track quality 100.0 %
Test CRC B79C178B
Copy CRC B79C178B
Track not present in AccurateRip database
Copy OK
Track 3
Filename E:\EAC\VA - Masterpiece Volume 9 - CD - 2009 - FLAC\03. Bobby Thurston - My Love's The Real Thing (Frankie Rodriguez' Real Re-Edit).wav
Peak level 99.9 %
Track quality 100.0 %
Test CRC 91466249
Copy CRC 91466249
Track not present in AccurateRip database
Copy OK
Track 4
Filename E:\EAC\VA - Masterpiece Volume 9 - CD - 2009 - FLAC\04. D-Train - Music (Frankie Rodriguez Music Express Mix).wav
Peak level 99.9 %
Track quality 100.0 %
Test CRC F27781CF
Copy CRC F27781CF
Track not present in AccurateRip database
Copy OK
Track 5
Filename E:\EAC\VA - Masterpiece Volume 9 - CD - 2009 - FLAC\05. Tracy Weber - Sure Shot (Larry Levan Mix).wav
Peak level 99.9 %
Track quality 99.9 %
Test CRC 90E95B37
Copy CRC 90E95B37
Track not present in AccurateRip database
Copy OK
Track 6
Filename E:\EAC\VA - Masterpiece Volume 9 - CD - 2009 - FLAC\06. Nick Straker Band - Straight Ahead.wav
Peak level 99.9 %
Track quality 100.0 %
Test CRC 695DBC31
Copy CRC 695DBC31
Track not present in AccurateRip database
Copy OK
Track 7
Filename E:\EAC\VA - Masterpiece Volume 9 - CD - 2009 - FLAC\07. First Love - Can I Be With You Tonight.wav
Peak level 99.9 %
Track quality 100.0 %
Test CRC B0835FC8
Copy CRC B0835FC8
Track not present in AccurateRip database
Copy OK
Track 8
Filename E:\EAC\VA - Masterpiece Volume 9 - CD - 2009 - FLAC\08. Second Image - Starting Again.wav
Peak level 99.9 %
Track quality 100.0 %
Test CRC 80C4E582
Copy CRC 80C4E582
Track not present in AccurateRip database
Copy OK
Track 9
Filename E:\EAC\VA - Masterpiece Volume 9 - CD - 2009 - FLAC\09. Shot ft.Kim Marsh - Main Thing.wav
Peak level 99.9 %
Track quality 100.0 %
Test CRC 79D4F341
Copy CRC 79D4F341
Track not present in AccurateRip database
Copy OK
Track 10
Filename E:\EAC\VA - Masterpiece Volume 9 - CD - 2009 - FLAC\10. B-Biz-R - Sucker For Love (Extended U.S. Mix).wav
Peak level 99.9 %
Track quality 100.0 %
Test CRC D2ABC477
Copy CRC D2ABC477
Track not present in AccurateRip database
Copy OK
Track 11
Filename E:\EAC\VA - Masterpiece Volume 9 - CD - 2009 - FLAC\11. Carol Douglas - I Got Your Body.wav
Peak level 99.9 %
Track quality 100.0 %
Test CRC B4AA4DC4
Copy CRC B4AA4DC4
Track not present in AccurateRip database
Copy OK
Track 12
Filename E:\EAC\VA - Masterpiece Volume 9 - CD - 2009 - FLAC\12. Willie Collins - Where You Gonna Be Tonight.wav
Peak level 99.9 %
Track quality 99.9 %
Test CRC 773F6CB6
Copy CRC 773F6CB6
Track not present in AccurateRip database
Copy OK
Track 13
Filename E:\EAC\VA - Masterpiece Volume 9 - CD - 2009 - FLAC\13. The Ronnie Mcneir Experience - Come Be With Me.wav
Peak level 99.9 %
Track quality 100.0 %
Test CRC 8E499B24
Copy CRC 8E499B24
Track not present in AccurateRip database
Copy OK
None of the tracks are present in the AccurateRip database
No errors occurred
End of status report
 
a
AUDIOCHECKER v2.0 beta (build 457) - by Dester - opdester@freemail.hu
~~~~~~~~~~~~~~~~~~~~~~~~~~~~~~~~~~
-=== DO NOT EDIT THIS FILE! ===-
Path: ...\VA - Masterpiece Volume 9 (FLAC)
001 -=- 01. Krystol - Don't Change Your Ways.flac -=- CDDA (100%)
002 -=- 02. Bailey & Bridges - Come And Get It (U.S. Version).flac -=- CDDA (100%)
003 -=- 03. Bobby Thurston - My Love's The Real Thing (Frankie Rodriguez' Real Re-Edit).flac -=- CDDA (100%)
004 -=- 04. D-Train - Music (Frankie Rodriguez Music Express Mix).flac -=- CDDA (100%)
005 -=- 05. Tracy Weber - Sure Shot (Larry Levan Mix).flac -=- CDDA (99%)
006 -=- 06. Nick Straker Band - Straight Ahead.flac -=- CDDA (100%)
007 -=- 07. First Love - Can I Be With You Tonight.flac -=- CDDA (99%)
008 -=- 08. Second Image - Starting Again.flac -=- CDDA (99%)
009 -=- 09. Shot ft.Kim Marsh - Main Thing.flac -=- CDDA (100%)
010 -=- 10. B-Biz-R - Sucker For Love (Extended U.S. Mix).flac -=- CDDA (100%)
011 -=- 11. Carol Douglas - I Got Your Body.flac -=- CDDA (100%)
012 -=- 12. Willie Collins - Where You Gonna Be Tonight.flac -=- CDDA (100%)
013 -=- 13. The Ronnie Mcneir Experience - Come Be With Me.flac -=- CDDA (100%)
Summary 99,77% CDDA
107774788
 
скрытый текст
Приватный:
Нет (DHT включён)
Размер:
525.61 Мб (551,141,202 байт) » файлов: 18
Участники:
0 раздают, 0 качают (0 участников всего)
Внешние участники:
2 раздают, 1 качают (3 участников всего) [ Обновить ]
Никого нет на раздаче - пишите личное сообщение M0p94ok
No seeders - write personal message to M0p94ok
02:23
46
Нет комментариев. Ваш будет первым!