Поиск

(Jazz, Soul) VA - NU Soul: A Selection Of New Rare Tunes With A Soul Flavour 2CD - 2004, FLAC (image+.cue), lossless

(Jazz, Soul) VA - NU Soul: A Selection Of New Rare Tunes With A Soul Flavour 2CD - 2004, FLAC (image+.cue), lossless
Треклист:
Various Artists - NU Soul: A Selection Of New Rare Tunes With A Soul Flavour 2CD
Жанр: Jazz, Soul
Год выпуска диска: 2004
Производитель диска: Wagram / France
Аудио кодек: FLAC
Тип рипа: image+.cue
Битрейт аудио: lossless
Продолжительность: 01:57 ч.
Covers: 600dpi
Источник: мой рип
Трэклист:
CD1
01. D'Nell / The Thing [0:05:53.40]
02. Fertile Ground / Take Me Higher [0:04:39.71]
03. Tony Allen feat. Mary & Norman / Calling [0:04:29.20]
04. Los Chicharrons feat. Lady Z / Love Magic [0:03:45.39]
05. Nathan Haines feat. Marlena Shaw / Squire For Hire [0:03:59.39]
06. Ashley Slater / Husband [0:05:14.56]
07. Koop feat. Terry Callier / In A Heartbeat [0:05:06.63]
08. Top Rocking feat. April King / The Real New World [0:04:13.06]
09. Rae & Christian feat. Bobby Womack / Get A Life [0:03:37.12]
10. Victor Davies / Better Place [0:04:28.64]
11. DJ Cam feat. Inlove / Africa (Mothership Connection) [0:04:55.01]
12. Slow Train / Inna City Woman [0:04:38.11]
CD2
01. Smith & Mighty feat. Tammy Payne / Same [0:03:55.18]
02. Spacek / Motion Control [0:04:15.27]
03. Modaji feat. Jag / No Disguise [0:05:35.48]
04. Vikter Duplaix / Sensuality [0:03:58.00]
05. Ursula Rucker / Supa Sister [0:04:13.01]
06. King Britt feat. Ivana Santilli / Superstar [0:05:33.30]
07. Joseph Malik feat. Colin Steele / I Don't Wait [0:06:35.34]
08. Shaun Escoffery / Days Like This [0:07:56.22]
09. Mark Rae feat. Veba / Lavish [0:05:18.27]
10. Only Child feat. Kriminul / Memories [0:04:14.52]
11. Georg Levin / (I Got) Somebody New [0:05:09.01]
12. Osunlade feat. Nadirah Shakoor / Tree Of Life [0:05:31.44]
 
Лог EAC CD1
Exact Audio Copy V0.99 prebeta 4 from 23. January 2008
Отчёт EAC об извлечении, выполненном 5. февраля 2010, 20:48
Various / NU Soul - A Selection Of New Rare Tunes With A Soul Flavour - CD1
Дисковод: PLEXTOR DVDR PX-810SA Adapter: 0 ID: 0
Режим чтения : Достоверность
Использование точного потока : Да
Отключение кэша аудио : Да
Использование указателей C2 : Нет
Коррекция смещения при чтении : 48
Способность читать области Lead-in и Lead-out : Нет
Заполнение пропущенных сэмплов тишиной : Да
Удаление блоков с тишиной в начале и конце : Нет
При вычислениях CRC использовались нулевые сэмплы : Да
Интерфейс : Встроенный Win32-интерфейс для Win NT/2000
Выходной формат : Внутренние WAV-операции
Формат сэмплов : 44.100 Гц; 16 бит; стерео
TOC извлечённого CD
Трек | Старт | Длительность | Начальный сектор | Конечный сектор
---------------------------------------------------------------------
1 | 0:00.00 | 5:53.40 | 0 | 26514
2 | 5:53.40 | 4:39.71 | 26515 | 47510
3 | 10:33.36 | 4:29.20 | 47511 | 67705
4 | 15:02.56 | 3:45.39 | 67706 | 84619
5 | 18:48.20 | 3:59.39 | 84620 | 102583
6 | 22:47.59 | 5:14.56 | 102584 | 126189
7 | 28:02.40 | 5:06.63 | 126190 | 149202
8 | 33:09.28 | 4:13.06 | 149203 | 168183
9 | 37:22.34 | 3:37.12 | 168184 | 184470
10 | 40:59.46 | 4:28.64 | 184471 | 204634
11 | 45:28.35 | 4:55.01 | 204635 | 226760
12 | 50:23.36 | 4:38.11 | 226761 | 247621
Характеристики диапазона извлечения и сообщения об ошибках
Выбранный диапазон
Имя файла E:\Загрузка\Out\NU Soul (2004)\Various - NU Soul - A Selection Of New Rare Tunes With A Soul Flavour - CD1.wav
Пиковый уровень 97.7 %
Качество диапазона 100.0 %
CRC копии B940D213
Копирование... OK
Ошибок не произошло
AccurateRip: сводка
Трек 1 точное извлечение (доверие 4) [0E247F28]
Трек 2 точное извлечение (доверие 4) [252A0BCA]
Трек 3 точное извлечение (доверие 4) [55A3B232]
Трек 4 точное извлечение (доверие 4) [EC95D49C]
Трек 5 точное извлечение (доверие 5) [2341EA2C]
Трек 6 точное извлечение (доверие 5) [4A632023]
Трек 7 точное извлечение (доверие 5) [CC8F92DB]
Трек 8 точное извлечение (доверие 5) [A365860F]
Трек 9 точное извлечение (доверие 5) [91DA93F8]
Трек 10 точное извлечение (доверие 5) [7CB2C6AB]
Трек 11 точное извлечение (доверие 5) [8C7A3EE7]
Трек 12 точное извлечение (доверие 4) [2BF838EB]
Все треки извлечены точно
Конец отчёта
 
Лог EAC CD2
Exact Audio Copy V0.99 prebeta 4 from 23. January 2008
Отчёт EAC об извлечении, выполненном 5. февраля 2010, 21:03
Various / NU Soul - A Selection Of New Rare Tunes With A Soul Flavour - CD2
Дисковод: PLEXTOR DVDR PX-810SA Adapter: 0 ID: 0
Режим чтения : Достоверность
Использование точного потока : Да
Отключение кэша аудио : Да
Использование указателей C2 : Нет
Коррекция смещения при чтении : 48
Способность читать области Lead-in и Lead-out : Нет
Заполнение пропущенных сэмплов тишиной : Да
Удаление блоков с тишиной в начале и конце : Нет
При вычислениях CRC использовались нулевые сэмплы : Да
Интерфейс : Встроенный Win32-интерфейс для Win NT/2000
Выходной формат : Внутренние WAV-операции
Формат сэмплов : 44.100 Гц; 16 бит; стерео
TOC извлечённого CD
Трек | Старт | Длительность | Начальный сектор | Конечный сектор
---------------------------------------------------------------------
1 | 0:00.00 | 3:55.18 | 0 | 17642
2 | 3:55.18 | 4:15.27 | 17643 | 36794
3 | 8:10.45 | 5:35.48 | 36795 | 61967
4 | 13:46.18 | 3:58.00 | 61968 | 79817
5 | 17:44.18 | 4:13.01 | 79818 | 98793
6 | 21:57.19 | 5:33.30 | 98794 | 123798
7 | 27:30.49 | 6:35.34 | 123799 | 153457
8 | 34:06.08 | 7:56.22 | 153458 | 189179
9 | 42:02.30 | 5:18.27 | 189180 | 213056
10 | 47:20.57 | 4:14.52 | 213057 | 232158
11 | 51:35.34 | 5:09.01 | 232159 | 255334
12 | 56:44.35 | 5:31.44 | 255335 | 280203
Характеристики диапазона извлечения и сообщения об ошибках
Выбранный диапазон
Имя файла E:\Загрузка\Out\NU Soul (2004)\Various - NU Soul - A Selection Of New Rare Tunes With A Soul Flavour - CD2.wav
Пиковый уровень 97.7 %
Качество диапазона 99.9 %
CRC копии C5B95AA8
Копирование... OK
Ошибок не произошло
AccurateRip: сводка
Трек 1 точное извлечение (доверие 4) [905CC52A]
Трек 2 точное извлечение (доверие 4) [DEF0CF8C]
Трек 3 точное извлечение (доверие 4) [57733848]
Трек 4 точное извлечение (доверие 4) [EB594285]
Трек 5 точное извлечение (доверие 4) [84F11125]
Трек 6 точное извлечение (доверие 4) [9EAEA147]
Трек 7 точное извлечение (доверие 4) [985E974B]
Трек 8 точное извлечение (доверие 4) [AF5CF903]
Трек 9 точное извлечение (доверие 4) [C248A932]
Трек 10 точное извлечение (доверие 4) [08F659DA]
Трек 11 точное извлечение (доверие 4) [1B8E098D]
Трек 12 точное извлечение (доверие 3) [E43585EA]
Все треки извлечены точно
Конец отчёта
Приватный:
Нет (DHT включён)
Размер:
746.40 Мб (782,654,926 байт) » файлов: 13
Участники:
0 раздают, 0 качают (0 участников всего)
Внешние участники:
2 раздают, 1 качают (3 участников всего) [ Обновить ]
Никого нет на раздаче - пишите ЛС M0p94ok
No seeders - write PM to M0p94ok
02:24
18
Нет комментариев. Ваш будет первым!